BitTorrentTracker PerecTracker.org
BitTorrentTracker PerecTracker.org
    
Регистрация  ·  Вход
 
 · 
Забыли пароль?

  • Конец мужского господства / Закат мужской империи / Le declin de l\'empire masculin / The Fall of the Male Empire (Анджело Чанчи / Angelo Cianci) [2013, Франция, комедия, экранизация, DVB] Original (Fre) + Sub (Rus, Eng, Fre, Deu)

    Ответить на тему
     
    Автор Сообщение

    Light

    Создавать темы 19-Сен-2016 21:20

           

    [Цитировать]

    Конец мужского господства
    Le déclin de l'empire masculin-Страна: Франция
    Жанр: комедия, экранизация
    Год выпуска: 2013
    Продолжительность: 01:32:16
    Перевод: Субтитры (перевод А.Вижье, Éclair Group)
    Cубтитры: русские, английские, французские, немецкие, нидерландские
    Оригинальная аудиодорожка: французский
    Режиссер: Анджело Чанчи / Angelo CianciВ ролях: Грегори Деранжер / Grégori Derangère (Simon), Жеральдин Пайя / Géraldine Pailhas (Camille), Ариэль Семенофф / Arielle Sémenoff (Mireille), Николя Бриде / Nicolas Bridet (Antoine), Андре Умански / André Oumansky (Charles)
    Описание: По роману Давида Абикера / David Abiker "Музей человека: Невероятный конец мужского господства / Le musée de l'homme: Le fabuleux déclin de l'empire masculin" (2007).
    В одной из обычных французских семей, где муж дает подросткам уроки игры на пианино, но не получает за это достаточно денег, а жена успевает зарабатывать, заниматься домом и двумя детьми — произошли серьезные перемены. Камилле предложили ответственную должность в Национальном музее естествознания. Теперь все домашние хлопоты и воспитание дочерей легли на плечи впечатлительного пианиста и неуравновешенных родственников. Вдобавок ко всему, во время семейного посещения музея, Симон приметил забавный экспонат пещерного человека. Теперь неандерталец стал появляться рядом с ним в самых неожиданных местах, в основном рыча или круша что-нибудь…
    Доп. информация: Hot Bird (13.0°E) TV5MONDE Europe DVB-S

    Качество видео: DVB
    Формат видео: MKV
    Видео: MPEG Video 2, 720x576@1024x576 (16:9), 25 fps, ~2805 kbps avg, 0.271 bit/pixel
    Аудио: MPEG Audio 2, 2 ch, 48 kHz, 192 kbps - французский
    Формат субтитров: softsub (SRT)

    Пример субтитров

    100:00:12,387 --> 00:00:15,387КОНЕЦ МУЖСКОГО ГОСПОДСТВА
    200:00:40,228 --> 00:00:41,554Если ты не знаешь,
    300:00:41,554 --> 00:00:44,554куда идти,можно у кого-нибудь спросить.
    400:00:44,831 --> 00:00:47,514Я здесь уже 100 лет не был.
    500:00:47,514 --> 00:00:48,937Это чувствуется.
    600:00:48,937 --> 00:00:51,465Люси здесь.
    700:00:51,465 --> 00:00:54,0193начит, по логике вещей мы должны...
    800:00:54,019 --> 00:00:57,019За 100 лет они навернякакое-что поменяли.
    900:00:57,420 --> 00:01:00,420Держи.Будешь меня фотографировать.
    1000:01:00,536 --> 00:01:03,180Я его хорошо запомнил:огромный,
    1100:01:03,180 --> 00:01:05,224с кустистыми бровями,
    1200:01:05,224 --> 00:01:08,224страшный, взлохмаченный.
    1300:01:12,019 --> 00:01:15,019Погляди-ка!
    1400:01:19,699 --> 00:01:21,258Внимание!
    1500:01:21,258 --> 00:01:23,304Он, может,меньше, чем я думал,
    1600:01:23,304 --> 00:01:26,023но за неимением лучшеговполне сойдет.
    1700:01:26,023 --> 00:01:28,535Мне это не пойдет.Тут никого нет.
    1800:01:28,535 --> 00:01:31,535-Когда у тебя доклад?-Через 2 недели.
    1900:01:31,666 --> 00:01:33,661Папа что-нибудь придумает.
    2000:01:33,661 --> 00:01:36,661Папа всегда находит выход.Все, пошли.

    MediaInfo

    GeneralUnique ID : 236670315406435927696258387389869684633 (0xB20D0B7401E5EF03BE88306FCBDF7799)Complete name : [apreder]Le_declin_de_l'empire_masculin(2013)DVB.mkvFormat : MatroskaFormat version : Version 2File size : 1.97 GiBDuration : 1 h 32 minOverall bit rate : 3 058 kb/sMovie name : Le declin de l'empire masculinReleased date : 2013-03-08Encoded date : UTC 2016-09-18 11:10:19Writing application : mkvmerge v9.4.2 ('So High') 64bitWriting library : libebml v1.3.4 + libmatroska v1.4.5Cover : YesAttachments : cover.jpg / small_cover.jpgACTOR : Gregori Derangere, Geraldine Pailhas, Arielle SemenoffDIRECTOR : Angelo CianciGENRE : ComedyIMDB : tt2342189KEYWORDS : perectracker.orgLAW_RATING : 16+
    VideoID : 1Format : MPEG VideoFormat version : Version 2Format profile : Main@MainFormat settings, BVOP : YesFormat settings, Matrix : CustomFormat settings, GOP : VariableFormat settings, picture structure : FrameCodec ID : V_MPEG2Codec ID/Info : MPEG 1 or 2 VideoDuration : 1 h 32 minBit rate : 2 805 kb/sMaximum bit rate : 3 200 kb/sWidth : 720 pixelsHeight : 576 pixelsDisplay aspect ratio : 16:9Frame rate mode : ConstantFrame rate : 25.000 FPSStandard : PALColor space : YUVChroma subsampling : 4:2:0Bit depth : 8 bitsScan type : InterlacedScan order : Top Field FirstCompression mode : LossyBits/(Pixel*Frame) : 0.271Stream size : 1.81 GiB (92%)Default : YesForced : No
    AudioID : 2Format : MPEG AudioFormat version : Version 1Format profile : Layer 2Codec ID : A_MPEG/L2Codec ID/Hint : MP2Duration : 1 h 32 minBit rate mode : ConstantBit rate : 192 kb/sChannel(s) : 2 channelsSampling rate : 48.0 kHzCompression mode : LossyStream size : 127 MiB (6%)Language : FrenchDefault : YesForced : No
    Text #1ID : 3Format : UTF-8Codec ID : S_TEXT/UTF8Codec ID/Info : UTF-8 Plain TextLanguage : RussianDefault : NoForced : No
    Text #2ID : 4Format : UTF-8Codec ID : S_TEXT/UTF8Codec ID/Info : UTF-8 Plain TextLanguage : EnglishDefault : NoForced : No
    Text #3ID : 5Format : UTF-8Codec ID : S_TEXT/UTF8Codec ID/Info : UTF-8 Plain TextLanguage : FrenchDefault : NoForced : No
    Text #4ID : 6Format : UTF-8Codec ID : S_TEXT/UTF8Codec ID/Info : UTF-8 Plain TextLanguage : GermanDefault : NoForced : No
    Text #5ID : 7Format : UTF-8Codec ID : S_TEXT/UTF8Codec ID/Info : UTF-8 Plain TextLanguage : DutchDefault : NoForced : No

    Скриншот c названием фильма

    Скриншоты


    Резервные скриншоты


    -
    Скачать .torrent

    Скачать торрент-файл бесплатно и на максимальной скорости!

    Как скачивать? · Что такое торрент? · Рейтинг и ограничения

    !ВНИМАНИЕ!
    Сайт не распространяет и не хранит электронные версии произведений, а занимается лишь лишь предоставлением доступа к создаваемому пользователями каталогу ссылок на торрент-файлы, которые содержат только списки хеш-сумм, убедительная просьба с жалобами обращаться напрямую к пользователю. Файлы для обмена на трекере предоставлены пользователями сайта, и администрация не несёт ответственности за их содержание. Просьба не заливать файлы, защищенные авторскими правами, а также файлы нелегального содержания!


    _________________
    [Профиль] [ЛС]
    Показать сообщения:    
    Ответить на тему

    Текущее время: Сегодня, в 21:53

    Часовой пояс: GMT + 2



    Вы не можете начинать темы
    Вы не можете отвечать на сообщения
    Вы не можете редактировать свои сообщения
    Вы не можете удалять свои сообщения
    Вы не можете голосовать в опросах
    Вы не можете прикреплять файлы к сообщениям
    Вы не можете скачивать файлы