BitTorrentTracker PerecTracker.org
BitTorrentTracker PerecTracker.org
    
Регистрация  ·  Вход
 
 · 
Забыли пароль?

  • Убийства в Ла-Рошели / Meurtres a la Rochelle (Этьенн Дан / Etienne Dhaene) [2015, Франция, детектив, DVB] Original (Fre) + Sub (Rus, Eng, Fre, Deu)

    Ответить на тему
     
    Автор Сообщение

    Light

    Создавать темы 19-Сен-2016 21:20

           

    [Цитировать]

    Убийства в Ла-Рошели
    Meurtres à la Rochelle-Страна: Франция
    Жанр: детектив
    Год выпуска: 2015
    Продолжительность: 01:31:44
    Перевод: Субтитры (перевод М.Кузиной, Éclair Media)
    Cубтитры: русские, английские, французские, немецкие, нидерландские
    Оригинальная аудиодорожка: французский
    Режиссер: Этьенн Дан / Étienne DhaeneВ ролях: Филипп Каруа / Philippe Caroit (Raphaël Weiss), Дунья Кесен / Dounia Coesens (Justine Balmont), Гийом Денефф / Guillaume Denaiffe (Théo Gosselin), Люси Жанн / Lucie Jeanne (Adèle Fabian), Валери Каприски / Valérie Kaprisky (Alexandra Larcher), Смаил Мекки / Smaïl Mekki (Marwan Brahimi)
    Описание: Фильм из телевизионного цикла "Убийства в... / Meurtres à..." о трагических событиях, происходящих в разных городах Франции, расследованиях, ведущихся различными полицейскими детективами, где все преступления имеют под собой некую особенность - использование легенд и преданий прошлого.
    Хорошего мужа и успешного предпринимателя кто-то жестоко избил, а потом убил и повесил в башне форта с начертанной буквой "А" на лбу, что напомнило о кровавой легенде XVI века о семи монахах.
    Доп. информация: Hot Bird (13.0°E) TV5MONDE Europe DVB-S

    Качество видео: DVB
    Формат видео: MKV
    Видео: MPEG Video 2, 720x576@1024x576 (16:9), 25 fps, ~2925 kbps avg, 0.282 bit/pixel
    Аудио: MPEG Audio 2, 2 ch, 48 kHz, 192 kbps - французский
    Формат субтитров: softsub (SRT)

    Пример субтитров

    100:00:29,670 --> 00:00:32,670Вот болваны!
    200:00:37,705 --> 00:00:40,705Твою мать!
    300:00:47,071 --> 00:00:50,071УБИЙСТВА В ЛА-РОШЕЛИ
    400:01:13,393 --> 00:01:15,784-3дравствуйте, капитан.-Привет, Тео.
    500:01:15,784 --> 00:01:18,070Чай с бергамотоми капелькой молока.
    600:01:18,070 --> 00:01:20,600-Потом. Спасибо.-Держите. Он не хочет.
    700:01:20,600 --> 00:01:21,591Все собрались?
    800:01:21,591 --> 00:01:23,634Прокурор вас ждет.
    900:01:23,634 --> 00:01:26,106Новый прокурор -Адель Фабьян.
    1000:01:26,106 --> 00:01:28,587-Это точно не самоубийство?-Точно.
    1100:01:28,587 --> 00:01:31,427Эксперт подтвердил.
    1200:01:31,427 --> 00:01:32,835А его вы знаете.
    1300:01:32,835 --> 00:01:35,835Спасибо.
    1400:01:37,066 --> 00:01:39,475Отправьте образцыв лабораторию.
    1500:01:39,475 --> 00:01:41,504Рафаэль!
    1600:01:41,504 --> 00:01:44,504Мы тебя вчера ждали.Мари рагу приготовила.
    1700:01:44,597 --> 00:01:46,831Прости, Маруан.Я забыл.
    1800:01:46,831 --> 00:01:48,634Надо было отчеты дописать.
    1900:01:48,634 --> 00:01:51,634Адель Фабьян,прокуратура Бордо.
    2000:01:51,713 --> 00:01:54,713Капитан Вейс, полиция Ла-Рошели.Тео, мой заместитель.

    MediaInfo

    GeneralUnique ID : 180818951266623802392715666453168203534 (0x880876993CA1EFACAE233BD05021270E)Complete name : [apreder]Meurtres_a_la_Rochelle(2015)DVB.mkvFormat : MatroskaFormat version : Version 2File size : 2.04 GiBDuration : 1 h 31 minOverall bit rate : 3 180 kb/sMovie name : Meurtres а la RochelleReleased date : 2015-11-14Encoded date : UTC 2016-09-18 17:23:44Writing application : mkvmerge v9.4.2 ('So High') 64bitWriting library : libebml v1.3.4 + libmatroska v1.4.5Cover : YesAttachments : cover.jpg / small_cover.jpgACTOR : Philippe Caroit, Dounia Coesens, Guillaume DenaiffeDIRECTOR : Йtienne DhaeneGENRE : CrimeIMDB : tt4592820KEYWORDS : perectracker.orgLAW_RATING : 16+
    VideoID : 1Format : MPEG VideoFormat version : Version 2Format profile : Main@MainFormat settings, BVOP : YesFormat settings, Matrix : CustomFormat settings, GOP : M=4, N=12Format settings, picture structure : FrameCodec ID : V_MPEG2Codec ID/Info : MPEG 1 or 2 VideoDuration : 1 h 31 minBit rate : 2 925 kb/sMaximum bit rate : 3 200 kb/sWidth : 720 pixelsHeight : 576 pixelsDisplay aspect ratio : 16:9Frame rate mode : ConstantFrame rate : 25.000 FPSStandard : PALColor space : YUVChroma subsampling : 4:2:0Bit depth : 8 bitsScan type : InterlacedScan order : Top Field FirstCompression mode : LossyBits/(Pixel*Frame) : 0.282Stream size : 1.87 GiB (92%)Default : YesForced : No
    AudioID : 2Format : MPEG AudioFormat version : Version 1Format profile : Layer 2Mode : Joint stereoMode extension : Intensity Stereo + MS StereoCodec ID : A_MPEG/L2Codec ID/Hint : MP2Duration : 1 h 31 minBit rate mode : ConstantBit rate : 192 kb/sChannel(s) : 2 channelsSampling rate : 48.0 kHzCompression mode : LossyStream size : 126 MiB (6%)Language : FrenchDefault : YesForced : No
    Text #1ID : 3Format : UTF-8Codec ID : S_TEXT/UTF8Codec ID/Info : UTF-8 Plain TextLanguage : RussianDefault : NoForced : No
    Text #2ID : 4Format : UTF-8Codec ID : S_TEXT/UTF8Codec ID/Info : UTF-8 Plain TextLanguage : EnglishDefault : NoForced : No
    Text #3ID : 5Format : UTF-8Codec ID : S_TEXT/UTF8Codec ID/Info : UTF-8 Plain TextLanguage : FrenchDefault : NoForced : No
    Text #4ID : 6Format : UTF-8Codec ID : S_TEXT/UTF8Codec ID/Info : UTF-8 Plain TextLanguage : GermanDefault : NoForced : No
    Text #5ID : 7Format : UTF-8Codec ID : S_TEXT/UTF8Codec ID/Info : UTF-8 Plain TextLanguage : DutchDefault : NoForced : No

    Скриншот c названием фильма

    Скриншоты

    Резервные скриншоты


    -
    Скачать .torrent

    Скачать торрент-файл бесплатно и на максимальной скорости!

    Как скачивать? · Что такое торрент? · Рейтинг и ограничения

    !ВНИМАНИЕ!
    Сайт не распространяет и не хранит электронные версии произведений, а занимается лишь лишь предоставлением доступа к создаваемому пользователями каталогу ссылок на торрент-файлы, которые содержат только списки хеш-сумм, убедительная просьба с жалобами обращаться напрямую к пользователю. Файлы для обмена на трекере предоставлены пользователями сайта, и администрация не несёт ответственности за их содержание. Просьба не заливать файлы, защищенные авторскими правами, а также файлы нелегального содержания!


    _________________
    [Профиль] [ЛС]
    Показать сообщения:    
    Ответить на тему

    Текущее время: Сегодня, в 18:28

    Часовой пояс: GMT + 2



    Вы не можете начинать темы
    Вы не можете отвечать на сообщения
    Вы не можете редактировать свои сообщения
    Вы не можете удалять свои сообщения
    Вы не можете голосовать в опросах
    Вы не можете прикреплять файлы к сообщениям
    Вы не можете скачивать файлы