BitTorrentTracker PerecTracker.org
BitTorrentTracker PerecTracker.org
    
Регистрация  ·  Вход
 
 · 
Забыли пароль?

  • Случайных встреч не бывает / Серии: 1-4 из 4 (Виктория Мельникова) [2016, мелодрама, WEBRip]

    Ответить на тему
     
    Автор Сообщение

    rechyn

    Создавать темы 19-Сен-2016 15:36

           

    [Цитировать]

    Случайных встреч не бывает
    Год выпуска: 2016
    Производство: 1+1
    Жанр: мелодрама
    Продолжительность: 00:45:00
    Субтитры: нет
    Режиссёр: Виктория Мельникова
    В ролях: Анна Кузина, Сергей Деревянко, Сергей Радченко, Мила Сивацкая, Сергей Калантай, Алла Мартынюк, Станислав Мельник
    Описание: Вместе с мужем Елена владеет успешным семейным бизнесом. Единственное, о чём она теперь мечтает, это дети. Но из-за аборта, сделанного много лет назад по настоянию супруга, Елена больше не может иметь детей. Женщина уговаривает своего мужа усыновить сироту. Это приводит к частым конфликтам и разрушает хрупкую семейную идиллию. Последняя ссора между ними происходит прямо в аэропорту перед вылетом мужа в важную деловую командировку, от результатов которой зависит благополучие их бизнеса...

    Релиз группа

    Все раздачи сериала:
    Случайных встреч не бывает

    Качество: WEBRip
    Формат: AVI
    Видео кодек: XviD
    Аудио кодек: AC3
    Видео: MPEG-4 Visual, 720х400, 25 кадр/с, ~1550 Кбит/сек, 0,213 bit/pixel
    Аудио: АС3, 48,0 kHz, 2 ch, 192 Кбит/с

    MI

    General
    Complete name               : X:\раздачи\Случайных встреч не бывает. 2016.WEB-DLRip.RG.Russkie.serialy.&.Files-x.Случайных встреч не бывает. 2016.WEB-DLRip.RG.Russkie.serialy.&.Files-x.avi
    Format                      : AVI
    Format/Info                 : Audio Video Interleave
    File size                   : 560 MiB
    Duration                    : 45mn 5s
    Overall bit rate            : 1 737 Kbps
    Writing application         : VirtualDubMod 1.5.10.3 | www.virtualdub-fr.org || (build 2550/release)
    Writing library             : VirtualDubMod build 2550/release
    Video
    ID                          : 0
    Format                      : MPEG-4 Visual
    Format profile              : Advanced Simple@L5
    Format settings, BVOP       : 1
    Format settings, QPel       : No
    Format settings, GMC        : No warppoints
    Format settings, Matrix     : Custom
    Codec ID                    : XVID
    Codec ID/Hint               : XviD
    Duration                    : 45mn 5s
    Bit rate                    : 1 535 Kbps
    Width                       : 720 pixels
    Height                      : 400 pixels
    Display aspect ratio        : 16:9
    Frame rate                  : 25.000 fps
    Color space                 : YUV
    Chroma subsampling          : 4:2:0
    Bit depth                   : 8 bits
    Scan type                   : Progressive
    Compression mode            : Lossy
    Bits/(Pixel*Frame)          : 0.213
    Stream size                 : 495 MiB (88%)
    Writing library             : XviD 73
    Audio
    ID                          : 1
    Format                      : AC-3
    Format/Info                 : Audio Coding 3
    Mode extension              : CM (complete main)
    Format settings, Endianness : Big
    Codec ID                    : 2000
    Duration                    : 45mn 5s
    Bit rate mode               : Constant
    Bit rate                    : 192 Kbps
    Channel(s)                  : 2 channels
    Channel positions           : Front: L R
    Sampling rate               : 48.0 KHz
    Frame rate                  : 31.250 fps (1536 spf)
    Compression mode            : Lossy
    Stream size                 : 61.9 MiB (11%)
    Alignment                   : Split accross interleaves
    Interleave, duration        : 40 ms (1.00 video frame)
    Interleave, preload duratio : 500 ms

    Скриншоты

    Скачать .torrent

    Скачать торрент-файл бесплатно и на максимальной скорости!

    Как скачивать? · Что такое торрент? · Рейтинг и ограничения

    !ВНИМАНИЕ!
    Сайт не распространяет и не хранит электронные версии произведений, а занимается лишь лишь предоставлением доступа к создаваемому пользователями каталогу ссылок на торрент-файлы, которые содержат только списки хеш-сумм, убедительная просьба с жалобами обращаться напрямую к пользователю. Файлы для обмена на трекере предоставлены пользователями сайта, и администрация не несёт ответственности за их содержание. Просьба не заливать файлы, защищенные авторскими правами, а также файлы нелегального содержания!


    _________________
    [Профиль] [ЛС]
    Показать сообщения:    
    Ответить на тему

    Текущее время: Сегодня, в 08:12

    Часовой пояс: GMT + 2



    Вы не можете начинать темы
    Вы не можете отвечать на сообщения
    Вы не можете редактировать свои сообщения
    Вы не можете удалять свои сообщения
    Вы не можете голосовать в опросах
    Вы не можете прикреплять файлы к сообщениям
    Вы не можете скачивать файлы