BitTorrentTracker PerecTracker.org
BitTorrentTracker PerecTracker.org
    
Регистрация  ·  Вход
 
 · 
Забыли пароль?

  • Мальчишник: Часть III / The Hangover Part III (Тодд Филлипс / Todd Phillips) [2013, США, комедия, BDRip] Dub + Original Eng + Sub Rus, Eng

    Ответить на тему
     
    Автор Сообщение

    Light

    Создавать темы 19-Сен-2016 08:23

           

    [Цитировать]

    Мальчишник: Часть III / The Hangover Part III-Страна: США
    Жанр: комедия
    Год выпуска: 2013
    Продолжительность: 01:40:08
    Перевод: Профессиональный (дублированный)
    Cубтитры: русские, английские
    Оригинальная аудиодорожка: английский-Режиссер: Тодд Филлипс / Todd Phillips-В ролях: Брэдли Купер, Эд Хелмс, Зак Галифианакис, Кен Жонг, Джон Гудман, Джастин Барта, Джеффри Тэмбор, Мелисса МакКарти, Хэзер Грэм, Джейми Чунг.-Описание: Комедийный фильм Мальчишник: Часть III продолжает рассказывать о сумасшедших, ярких, опасных, незабываемых приключениях четверых друзей, которые умудряются попадать в самые невероятные ситуации. Старая, любимая компания, состоящая из: Фила, Стюарта, Дага и Алана снова вместе. Но на этот раз жениться никто не будет, не будет и мальчишника. Друзья собираются на похоронах отца Алана, который уже долгое время не принимает медикаменты и постоянно чудит. Понимая, что Алану нужна помощь друзья решают отправить его в клинику Новые горизонты, где ему предоставят лучшее лечение. Однако, отправляясь в путешествие ребята даже не подозревают, что поездка будет очень веселой! Впереди друзей ждет встреча с бандитской группировкой под названием Волчья стая, а так же встреча со старым другом мистером Чао и неспящий Лас-Вегас.-Релиз от:
    Автор рипа: kingsize87-Качество видео: BDRip (THE_HANGOVER_PART_III_2013_HDCLUB)
    Формат видео: AVI | Sample
    Видео: 720x304 (2.37:1), 23.976 fps, XviD build 65 ~2217 kbps avg, 0.42 bit/pixel
    Аудио 1: 48 kHz, AC3 Dolby Digital, 3/2 (L,C,R,l,r) + LFE ch, ~448.00 kbps avg | BD CEE
    Аудио 2: 48 kHz, AC3 Dolby Digital, 3/2 (L,C,R,l,r) + LFE ch, ~448.00 kbps avg | Original
    Субтитры: русские (форсированные, полные), английские (полные, полные sdh, полные sdh colored)

    Инфо

    Формат : AVI
    Формат/Информация : Audio Video Interleave
    Профиль формата : OpenDML
    Размер файла : 2,18 Гбайт
    Продолжительность : 1 ч. 40 м.
    Общий поток : 3121 Кбит/сек
    Название фильма : Мальчишник: Часть III / The Hangover Part III (2013) BDRip
    Режиссёр : kingsize87
    Программа кодирования : VirtualDubMod 1.5.10.2 (build 2540/release)
    Библиотека кодирования : VirtualDubMod build 2540/release
    Авторское право : HQCLUB
    Примечание : 29.10.2013
    Видео
    Идентификатор : 0
    Формат : MPEG-4 Visual
    Профиль формата : Advanced Simple@L5
    Параметр BVOP формата : 1
    Параметр QPel формата : Нет
    Параметр GMC формата : Без точки перехода
    Параметр матрицы формата : Выборочная
    Идентификатор кодека : XVID
    Идентификатор кодека/Подсказка : XviD
    Продолжительность : 1 ч. 40 м.
    Битрейт : 2207 Кбит/сек
    Ширина : 720 пикселей
    Высота : 304 пикселя
    Соотношение сторон : 2,35:1
    Частота кадров : 23,976 (24000/1001) кадра/сек
    Цветовое пространство : YUV
    Субдискретизация насыщенности : 4:2:0
    Битовая глубина : 8 бит
    Тип развёртки : Прогрессивная
    Метод сжатия : С потерями
    Бит/(Пиксели*Кадры) : 0.421
    Размер потока : 1,54 Гбайт (71%)
    Библиотека кодирования : XviD 65
    Аудио #1
    Идентификатор : 1
    Формат : AC-3
    Формат/Информация : Audio Coding 3
    Расширение режима : CM (complete main)
    Параметр Endianness формата : Big
    Идентификатор кодека : 2000
    Продолжительность : 1 ч. 40 м.
    Вид битрейта : Постоянный
    Битрейт : 448 Кбит/сек
    Каналы : 6 каналов
    Расположение каналов : Front: L C R, Side: L R, LFE
    Частота : 48,0 КГц
    Частота кадров : 31,250 кадров/сек (1536 spf)
    Метод сжатия : С потерями
    Размер потока : 321 Мбайт (14%)
    Выравнивание : Разделение по промежуткам
    Продолжительность промежутка : 42 мс. (1,00 видеокадр)
    Время предзагрузки промежутка : 500 мс.
    Аудио #2
    Идентификатор : 2
    Формат : AC-3
    Формат/Информация : Audio Coding 3
    Расширение режима : CM (complete main)
    Параметр Endianness формата : Big
    Идентификатор кодека : 2000
    Продолжительность : 1 ч. 40 м.
    Вид битрейта : Постоянный
    Битрейт : 448 Кбит/сек
    Каналы : 6 каналов
    Расположение каналов : Front: L C R, Side: L R, LFE
    Частота : 48,0 КГц
    Частота кадров : 31,250 кадров/сек (1536 spf)
    Метод сжатия : С потерями
    Размер потока : 321 Мбайт (14%)
    Выравнивание : Разделение по промежуткам
    Продолжительность промежутка : 42 мс. (1,00 видеокадр)
    Время предзагрузки промежутка : 500 мс.

    Скриншоты

    Скачать .torrent

    Скачать торрент-файл бесплатно и на максимальной скорости!

    Как скачивать? · Что такое торрент? · Рейтинг и ограничения

    !ВНИМАНИЕ!
    Сайт не распространяет и не хранит электронные версии произведений, а занимается лишь лишь предоставлением доступа к создаваемому пользователями каталогу ссылок на торрент-файлы, которые содержат только списки хеш-сумм, убедительная просьба с жалобами обращаться напрямую к пользователю. Файлы для обмена на трекере предоставлены пользователями сайта, и администрация не несёт ответственности за их содержание. Просьба не заливать файлы, защищенные авторскими правами, а также файлы нелегального содержания!


    _________________
    [Профиль] [ЛС]
    Показать сообщения:    
    Ответить на тему

    Текущее время: Сегодня, в 04:22

    Часовой пояс: GMT + 2



    Вы не можете начинать темы
    Вы не можете отвечать на сообщения
    Вы не можете редактировать свои сообщения
    Вы не можете удалять свои сообщения
    Вы не можете голосовать в опросах
    Вы не можете прикреплять файлы к сообщениям
    Вы не можете скачивать файлы