BitTorrentTracker PerecTracker.org
BitTorrentTracker PerecTracker.org
    
Регистрация  ·  Вход
 
 · 
Забыли пароль?

  • Миллион лет до нашей эры / One Million Years B.C. (Дон Чэффи / Don Chaffey) [1966, Великобритания, фэнтези, приключения, HDTV 1080i] [Полная британская версия / Uncut UK Version] AVO (Михаил Иванов) + Original Eng

    Ответить на тему
     
    Автор Сообщение

    Light

    Создавать темы 18-Сен-2016 23:50

           

    [Цитировать]

    Миллион лет до нашей эры / One Million Years B.C.
    Полная британская версия / Uncut UK Version

    Слоган: «This is the way it was»
    Страна: Великобритания
    Студия: Associated British-Pathé, Hammer Films, Seven Arts Pictures
    Жанр: фэнтези, приключения
    Год выпуска: 1966
    Продолжительность: 01:40:07
    Перевод: Авторский (одноголосый закадровый) - Михаил Иванов
    Cубтитры: нет
    Оригинальная аудиодорожка: английский
    Режиссер: Дон Чэффи / Don Chaffey
    В ролях: Рэкел Уэлч, Джон Ричардсон, Перси Херберт, Роберт Браун, Мартин Бесвик, Жан Влэдон, Лиза Томас, Малья Наппи, Ричард Джеймс, Уильям Лион Браун ...
    Описание: Действие фильма происходит в вымышленное доисторическое время. Пещерные люди сосуществуют в одном мире с динозаврами и фантастическими существами.
    Главный герой фильма Тумак изгнан из своего родного племени. После многих дней скитаний по пустыне, едва живого, его спасают от смерти незнакомые ему воины. Новые соплеменники гораздо более цивилизованы и продвинулись дальше в эволюции: имеют более совершенный язык, едят с тарелок, проводят обряд похорон. Тумак сближается с девушкой Лоаной. Тумак пытается украсть копьё одного из воинов, но оказывается пойман и изгнан из племени вместе с Лоаной.
    Тумак и Лоана вынуждены скитаться, постоянно спасаясь от полной опасности доисторической фауны…
    Доп. информация: Исходник One Million Years B.C.1080i.ts найден в сети.--Спасибо:
    AVO (Михаил Иванов) Nadoedala----One Million Years B.C._(1966)_1080i HDTV_[Uncut UK Version]_Sample_.mkv--Тип релиза: HDTV 1080i
    Контейнер: MKV
    Видео: MPEG-2 Video / 11.2 Mbps / 1080i / 29.970 fps / 16:9
    Аудио 1: Russian / Dolby Digital Audio / 2.0 / 48 kHz / 192 kbps
    Аудио 2: English / Dolby Digital Audio / 2.0 / 48 kHz / 384 kbps

    MediaInfo

    General
    Unique ID : 224091172080554685816129068842222699670 (0xA89663CDC087287DAEDCD3BFC7214496)
    Complete name : I:\111\z_D_Disk\One Million Years B.C._(1966)_1080i HDTV_[Uncut UK Version]_.mkv
    Format : Matroska
    Format version : Version 4 / Version 2
    File size : 8.40 GiB
    Duration : 1 h 40 min
    Overall bit rate mode : Variable
    Overall bit rate : 12.0 Mb/s
    Encoded date : UTC 2016-09-07 21:02:46
    Writing application : mkvmerge v8.6.1 ('Flying') 64bit
    Writing library : libebml v1.3.3 + libmatroska v1.4.4
    Video
    ID : 1
    Format : MPEG Video
    Format version : Version 2
    Format profile : Main@High
    Format settings, BVOP : Yes
    Format settings, Matrix : Custom
    Format settings, GOP : M=2, N=30
    Codec ID : V_MPEG2
    Codec ID/Info : MPEG 1 or 2 Video
    Bit rate mode : Variable
    Bit rate : 11.2 Mb/s
    Maximum bit rate : 38.8 Mb/s
    Width : 1 920 pixels
    Height : 1 080 pixels
    Display aspect ratio : 16:9
    Frame rate mode : Variable
    Original frame rate : 29.970 FPS
    Standard : Component
    Color space : YUV
    Chroma subsampling : 4:2:0
    Bit depth : 8 bits
    Compression mode : Lossy
    Time code of first frame : 00:00:00;00
    Time code source : Group of pictures header
    GOP, Open/Closed : Open
    Title : One Million Years B.C._(1966)_1080i HDTV_[Uncut UK Version]_[Muxed_by_rjhlb777]
    Language : English
    Default : Yes
    Forced : No
    Color primaries : BT.709
    Transfer characteristics : BT.709
    Matrix coefficients : BT.709
    Audio #1
    ID : 2
    Format : AC-3
    Format/Info : Audio Coding 3
    Mode extension : CM (complete main)
    Format settings, Endianness : Big
    Codec ID : A_AC3
    Duration : 1 h 40 min
    Bit rate mode : Constant
    Bit rate : 192 kb/s
    Channel(s) : 2 channels
    Channel positions : Front: L R
    Sampling rate : 48.0 kHz
    Frame rate : 31.250 FPS (1536 spf)
    Compression mode : Lossy
    Stream size : 137 MiB (2%)
    Title : AVO (Михайл Иванов)
    Language : Russian
    Default : Yes
    Forced : No
    Audio #2
    ID : 3
    Format : AC-3
    Format/Info : Audio Coding 3
    Mode extension : CM (complete main)
    Format settings, Endianness : Big
    Codec ID : A_AC3
    Duration : 1 h 40 min
    Bit rate mode : Constant
    Bit rate : 384 kb/s
    Channel(s) : 2 channels
    Channel positions : Front: L R
    Sampling rate : 48.0 kHz
    Frame rate : 31.250 FPS (1536 spf)
    Compression mode : Lossy
    Stream size : 275 MiB (3%)
    Title : Original
    Language : English
    Default : No
    Forced : No

    Скриншоты




    Скачать .torrent

    Скачать торрент-файл бесплатно и на максимальной скорости!

    Как скачивать? · Что такое торрент? · Рейтинг и ограничения

    !ВНИМАНИЕ!
    Сайт не распространяет и не хранит электронные версии произведений, а занимается лишь лишь предоставлением доступа к создаваемому пользователями каталогу ссылок на торрент-файлы, которые содержат только списки хеш-сумм, убедительная просьба с жалобами обращаться напрямую к пользователю. Файлы для обмена на трекере предоставлены пользователями сайта, и администрация не несёт ответственности за их содержание. Просьба не заливать файлы, защищенные авторскими правами, а также файлы нелегального содержания!


    _________________
    [Профиль] [ЛС]
    Показать сообщения:    
    Ответить на тему

    Текущее время: Сегодня, в 17:59

    Часовой пояс: GMT + 2



    Вы не можете начинать темы
    Вы не можете отвечать на сообщения
    Вы не можете редактировать свои сообщения
    Вы не можете удалять свои сообщения
    Вы не можете голосовать в опросах
    Вы не можете прикреплять файлы к сообщениям
    Вы не можете скачивать файлы