BitTorrentTracker PerecTracker.org
BitTorrentTracker PerecTracker.org
    
Регистрация  ·  Вход
 
 · 
Забыли пароль?

  • Письма к Джульетте / Letters to Juliet (Гари Виник / Gary Winick) [2010, США, мелодрама, BDRemux 1080p] Dub (Мосфильм) + DVO + 2x Ukr + AVO (Дольский) + Original Eng + Sub Rus, Ukr, Eng

    Ответить на тему
     
    Автор Сообщение

    Light

    Создавать темы 18-Сен-2016 23:50

           

    [Цитировать]

    Письма к Джульетте / Letters to Juliet«А вдруг у тебя есть ещё один шанс найти настоящую любовь?»СВЕТЛОЙ ПАМЯТИ_[Lidia Biondi]_[3 February 1941 – 14 June 2016]_Страна: США
    Студия: Summit Entertainment
    Жанр: мелодрама
    Год выпуска: 2010
    Продолжительность: 01:45:21
    Перевод 1: Профессиональный (дублированный) |Дубляж_[Мосфильм]_2010г|
    Перевод 2: Любительский (двухголосый закадровый) |DVO|
    Перевод 3: Авторский (одноголосый закадровый) |Дольский, Андрей Игоревич|
    Cубтитры: русские, украинские, английские
    Оригинальная аудиодорожка: английский
    Режиссер: Гари Виник / Gary Winick
    В ролях: Франко Неро & Ванесса Редгрейв, Лидия Бионди, Луиза Раньери, Милена Вукотич, Марина Массирони, Аманда Сайфред, Марсия ДеБонис, Гаэль Гарсия Берналь, Джордано Форменти, Паоло Арведи, Дарио Конти, Дэниел Бэлдок, Ивана Лотито.
    Описание: Верона — город любви, родина Ромео и Джульетты — навсегда меняет жизни тех, кто ступает на ее улицы. Молодая американка София оказывается в Вероне в группе волонтеров, отвечающих на письма, адресованные Джульетте. Однажды к ней в руки попадает затерявшееся с начала 60-х письмо, в котором некая Клэр Смиф пишет о своей безумной любви. Растроганная София разыскивает пожилую англичанку и вдохновляет ее приехать в Италию на поиски давно потерянного возлюбленного. Респектабельный внук, сопровождающий леди в поездке, против авантюрной идеи, но ему очень нравится София…
    Сэмпл: https://yadi.sk/i/3oCLxcU_utqrp
    Тип релиза: BDRemux 1080p
    Контейнер: MKV
    Видео: 1920x1080 at 23.976 fps, MPEG-4 AVC, 30000 kbps
    Аудио 1: Russian / DTS-HD Master Audio / 1903 kbps / 5.1 / 48 kHz / 16-bit (DTS Core: 5.1 / 48 kHz / 1509 kbps / 16-bit) |Дубляж_[Мосфильм]_2010г|
    Аудио 2: Russian / DTS-HD Master Audio / 5.1 / 48 kHz / 3534 kbps / 24-bit (DTS Core: 5.1 / 48 kHz / 1509 kbps / 24-bit) |DVO|
    Аудио 3: Ukrainian / AC3 / 2.0 / 48 kHz / 192 kbps / 16-bit |MVO, т/к Украина|
    Аудио 4: Ukrainian / AC3 / 2.0 / 48 kHz / 192 kbps / 16-bit |MVO, Tretyakoff Production|
    Аудио 5: Russian / DTS-HD Master Audio / 5.1 / 48 kHz / 3528 kbps / 24-bit (DTS Core: 5.1 / 48 kHz / 1509 kbps / 24-bit) |Дольский, Андрей Игоревич|
    Аудио 6: English / DTS-HD Master Audio / 5.1 / 48 kHz / 3488 kbps / 24-bit (DTS Core: 5.1 / 48 kHz / 1509 kbps / 24-bit) |original|
    Аудио 7: English / AC3 / 2.0 / 48 kHz / 192 kbps / 16-bit |коментарии с Амандой Сайфред и Гари Виник|
    Формат субтитров: softsub (SRT)

    MediaInfo

    Общее
    Уникальный идентификатор : 216003984831485289269969298139989585343 (0xA280DAB01692E66293601198273AADBF)
    Полное имя : C:\VS1661~1.P\movie\SERGIO~1\SERGIO~1\LETTER~1\Letters to Juliet_2010г_Amanda Michelle Seyfried & Francesco Clemente Giuseppe Sparanero_[Franco Nero]_.mkv
    Формат : Matroska
    Версия формата : Version 4 / Version 2
    Размер файла : 31,5 Гбайт
    Продолжительность : 1 ч. 45 м.
    Режим общего битрейта : Переменный
    Общий поток : 42,8 Мбит/сек
    Название фильма : Letters to Juliet_2010г_Amanda Michelle Seyfried & Francesco Clemente Giuseppe Sparanero_[Franco Nero]_
    Дата кодирования : UTC 2016-09-07 16:41:37
    Программа кодирования : mkvmerge v6.9.1 ('Blue Panther') 64bit built on Apr 18 2014 18:23:38
    Библиотека кодирования : libebml v1.3.0 + libmatroska v1.4.1
    Видео
    Идентификатор : 1
    Формат : AVC
    Формат/Информация : Advanced Video Codec
    Профиль формата : High@L4.1
    Параметр CABAC формата : Да
    Параметр ReFrames формата : 2 кадра
    Параметр GOP формата : M=1, N=10
    Идентификатор кодека : V_MPEG4/ISO/AVC
    Продолжительность : 1 ч. 45 м.
    Вид битрейта : Переменный
    Ширина : 1920 пикселей
    Высота : 1080 пикселей
    Соотношение сторон : 16:9
    Режим частоты кадров : Постоянный
    Частота кадров : 23,976 кадра/сек
    Цветовое пространство : YUV
    Субдискретизация насыщенности : 4:2:0
    Битовая глубина : 8 бит
    Тип развёртки : Прогрессивная
    Заголовок : Letters to Juliet_2010г_Amanda Michelle Seyfried & Francesco Clemente Giuseppe Sparanero_[Franco Nero]_
    Язык : English
    Default : Да
    Forced : Нет
    Аудио #1
    Идентификатор : 2
    Формат : DTS
    Формат/Информация : Digital Theater Systems
    Профиль формата : MA / Core
    Режим : 16
    Параметр Endianness формата : Big
    Идентификатор кодека : A_DTS
    Продолжительность : 1 ч. 45 м.
    Вид битрейта : Переменный
    Битрейт : Неизвестно / 1152 Кбит/сек
    Каналы : 6 каналов
    Расположение каналов : Front: L C R, Side: L R, LFE
    Частота : 48,0 КГц
    Битовая глубина : 16 бит
    Метод сжатия : Без потерь / Lossy
    Заголовок : |Дубляж_[Мосфильм]_2010г|
    Язык : Russian
    Default : Да
    Forced : Нет
    Аудио #2
    Идентификатор : 3
    Формат : DTS
    Формат/Информация : Digital Theater Systems
    Профиль формата : MA / Core
    Режим : 16
    Параметр Endianness формата : Big
    Идентификатор кодека : A_DTS
    Продолжительность : 1 ч. 45 м.
    Вид битрейта : Переменный
    Битрейт : Неизвестно / 1509 Кбит/сек
    Каналы : 6 каналов
    Расположение каналов : Front: L C R, Side: L R, LFE
    Частота : 48,0 КГц
    Битовая глубина : 24 бит
    Метод сжатия : Без потерь / Lossy
    Заголовок : |DVO|
    Язык : Russian
    Default : Нет
    Forced : Нет
    Аудио #3
    Идентификатор : 4
    Формат : AC-3
    Формат/Информация : Audio Coding 3
    Расширение режима : CM (complete main)
    Параметр Endianness формата : Big
    Идентификатор кодека : A_AC3
    Продолжительность : 1 ч. 45 м.
    Вид битрейта : Постоянный
    Битрейт : 192 Кбит/сек
    Каналы : 2 канала
    Расположение каналов : Front: L R
    Частота : 48,0 КГц
    Битовая глубина : 16 бит
    Метод сжатия : С потерями
    Размер потока : 145 Мбайт (0%)
    Заголовок : |MVO, т/к Украина|
    Язык : Ukrainian
    Default : Нет
    Forced : Нет
    Аудио #4
    Идентификатор : 5
    Формат : AC-3
    Формат/Информация : Audio Coding 3
    Расширение режима : CM (complete main)
    Параметр Endianness формата : Big
    Идентификатор кодека : A_AC3
    Продолжительность : 1 ч. 45 м.
    Вид битрейта : Постоянный
    Битрейт : 192 Кбит/сек
    Каналы : 2 канала
    Расположение каналов : Front: L R
    Частота : 48,0 КГц
    Битовая глубина : 16 бит
    Метод сжатия : С потерями
    Размер потока : 145 Мбайт (0%)
    Заголовок : |MVO, Tretyakoff Production|
    Язык : Ukrainian
    Default : Нет
    Forced : Нет
    Аудио #5
    Идентификатор : 6
    Формат : DTS
    Формат/Информация : Digital Theater Systems
    Профиль формата : MA / Core
    Режим : 16
    Параметр Endianness формата : Big
    Идентификатор кодека : A_DTS
    Продолжительность : 1 ч. 45 м.
    Вид битрейта : Переменный
    Битрейт : Неизвестно / 1509 Кбит/сек
    Каналы : 6 каналов
    Расположение каналов : Front: L C R, Side: L R, LFE
    Частота : 48,0 КГц
    Битовая глубина : 24 бит
    Метод сжатия : Без потерь / Lossy
    Заголовок : |Дольский, Андрей Игоревич|
    Язык : Russian
    Default : Нет
    Forced : Нет
    Аудио #6
    Идентификатор : 7
    Формат : DTS
    Формат/Информация : Digital Theater Systems
    Профиль формата : MA / Core
    Режим : 16
    Параметр Endianness формата : Big
    Идентификатор кодека : A_DTS
    Продолжительность : 1 ч. 45 м.
    Вид битрейта : Переменный
    Битрейт : Неизвестно / 1509 Кбит/сек
    Каналы : 6 каналов
    Расположение каналов : Front: L C R, Side: L R, LFE
    Частота : 48,0 КГц
    Битовая глубина : 24 бит
    Метод сжатия : Без потерь / Lossy
    Заголовок : |original|
    Язык : English
    Default : Нет
    Forced : Нет
    Аудио #7
    Идентификатор : 8
    Формат : AC-3
    Формат/Информация : Audio Coding 3
    Расширение режима : CM (complete main)
    Параметр Endianness формата : Big
    Идентификатор кодека : A_AC3
    Продолжительность : 1 ч. 45 м.
    Вид битрейта : Постоянный
    Битрейт : 192 Кбит/сек
    Каналы : 2 канала
    Расположение каналов : Front: L R
    Частота : 48,0 КГц
    Битовая глубина : 16 бит
    Метод сжатия : С потерями
    Размер потока : 145 Мбайт (0%)
    Заголовок : |commentary with Amanda Seyfried and Gary Winick|
    Язык : English
    Default : Нет
    Forced : Нет
    Текст #1
    Идентификатор : 9
    Формат : UTF-8
    Идентификатор кодека : S_TEXT/UTF8
    Идентификатор кодека/Информация : UTF-8 Plain Text
    Заголовок : full
    Язык : Russian
    Default : Нет
    Forced : Нет
    Текст #2
    Идентификатор : 10
    Формат : UTF-8
    Идентификатор кодека : S_TEXT/UTF8
    Идентификатор кодека/Информация : UTF-8 Plain Text
    Заголовок : full
    Язык : Ukrainian
    Default : Нет
    Forced : Нет
    Текст #3
    Идентификатор : 11
    Формат : UTF-8
    Идентификатор кодека : S_TEXT/UTF8
    Идентификатор кодека/Информация : UTF-8 Plain Text
    Заголовок : full
    Язык : English
    Default : Нет
    Forced : Нет
    Текст #4
    Идентификатор : 12
    Формат : UTF-8
    Идентификатор кодека : S_TEXT/UTF8
    Идентификатор кодека/Информация : UTF-8 Plain Text
    Заголовок : commentary
    Язык : English
    Default : Нет
    Forced : Нет
    Меню
    00:00:00.000 : :1. Fact Checker
    00:06:27.012 : :2. My Sweet Sophia
    00:10:30.213 : :3. The Secretaries of Juliet
    00:18:09.672 : :4. The Most Amazing Day
    00:26:17.201 : :5. She's Come To Find Her Lorenzo
    00:30:36.460 : :6. A Story Worth Telling
    00:33:54.950 : :7. The First Lorenzo
    00:40:29.510 : :8. Life Is The Messy Bits
    00:46:29.495 : :9. I Have A Good Feeling About This
    00:52:34.943 : :10. Do You Believe In Destiny?
    00:57:49.800 : :11. One Of The Great Joys In Life
    01:03:22.382 : :12. Charlie's Apology
    01:07:39.764 : :13. Carpazo Wine
    01:15:08.963 : :14. Don't Wait 50 Years Like I Did
    01:21:20.709 : :15. Going To Be Published
    01:27:43.383 : :16. The Wedding Ceremony
    01:31:27.774 : :17. What If
    01:35:06.784 : :18. Made For Each Other
    Общее
    Уникальный идентификатор : 216003984831485289269969298139989585343 (0xA280DAB01692E66293601198273AADBF)
    Полное имя : C:\VS1661~1.P\movie\SERGIO~1\SERGIO~1\LETTER~1\Letters to Juliet_2010г_Amanda Michelle Seyfried & Francesco Clemente Giuseppe Sparanero_[Franco Nero]_.mkv
    Формат : Matroska
    Версия формата : Version 4 / Version 2
    Размер файла : 31,5 Гбайт
    Продолжительность : 1 ч. 45 м.
    Режим общего битрейта : Переменный
    Общий поток : 42,8 Мбит/сек
    Название фильма : Letters to Juliet_2010г_Amanda Michelle Seyfried & Francesco Clemente Giuseppe Sparanero_[Franco Nero]_
    Дата кодирования : UTC 2016-09-07 16:41:37
    Программа кодирования : mkvmerge v6.9.1 ('Blue Panther') 64bit built on Apr 18 2014 18:23:38
    Библиотека кодирования : libebml v1.3.0 + libmatroska v1.4.1
    Видео
    Идентификатор : 1
    Формат : AVC
    Формат/Информация : Advanced Video Codec
    Профиль формата : High@L4.1
    Параметр CABAC формата : Да
    Параметр ReFrames формата : 2 кадра
    Параметр GOP формата : M=1, N=10
    Идентификатор кодека : V_MPEG4/ISO/AVC
    Продолжительность : 1 ч. 45 м.
    Вид битрейта : Переменный
    Ширина : 1920 пикселей
    Высота : 1080 пикселей
    Соотношение сторон : 16:9
    Режим частоты кадров : Постоянный
    Частота кадров : 23,976 кадра/сек
    Цветовое пространство : YUV
    Субдискретизация насыщенности : 4:2:0
    Битовая глубина : 8 бит
    Тип развёртки : Прогрессивная
    Заголовок : Letters to Juliet_2010г_Amanda Michelle Seyfried & Francesco Clemente Giuseppe Sparanero_[Franco Nero]_
    Язык : English
    Default : Да
    Forced : Нет
    Аудио #1
    Идентификатор : 2
    Формат : DTS
    Формат/Информация : Digital Theater Systems
    Профиль формата : MA / Core
    Режим : 16
    Параметр Endianness формата : Big
    Идентификатор кодека : A_DTS
    Продолжительность : 1 ч. 45 м.
    Вид битрейта : Переменный
    Битрейт : Неизвестно / 1152 Кбит/сек
    Каналы : 6 каналов
    Расположение каналов : Front: L C R, Side: L R, LFE
    Частота : 48,0 КГц
    Битовая глубина : 16 бит
    Метод сжатия : Без потерь / Lossy
    Заголовок : |Дубляж_[Мосфильм]_2010г|
    Язык : Russian
    Default : Да
    Forced : Нет
    Аудио #2
    Идентификатор : 3
    Формат : DTS
    Формат/Информация : Digital Theater Systems
    Профиль формата : MA / Core
    Режим : 16
    Параметр Endianness формата : Big
    Идентификатор кодека : A_DTS
    Продолжительность : 1 ч. 45 м.
    Вид битрейта : Переменный
    Битрейт : Неизвестно / 1509 Кбит/сек
    Каналы : 6 каналов
    Расположение каналов : Front: L C R, Side: L R, LFE
    Частота : 48,0 КГц
    Битовая глубина : 24 бит
    Метод сжатия : Без потерь / Lossy
    Заголовок : |DVO|
    Язык : Russian
    Default : Нет
    Forced : Нет
    Аудио #3
    Идентификатор : 4
    Формат : AC-3
    Формат/Информация : Audio Coding 3
    Расширение режима : CM (complete main)
    Параметр Endianness формата : Big
    Идентификатор кодека : A_AC3
    Продолжительность : 1 ч. 45 м.
    Вид битрейта : Постоянный
    Битрейт : 192 Кбит/сек
    Каналы : 2 канала
    Расположение каналов : Front: L R
    Частота : 48,0 КГц
    Битовая глубина : 16 бит
    Метод сжатия : С потерями
    Размер потока : 145 Мбайт (0%)
    Заголовок : |MVO, т/к Украина|
    Язык : Ukrainian
    Default : Нет
    Forced : Нет
    Аудио #4
    Идентификатор : 5
    Формат : AC-3
    Формат/Информация : Audio Coding 3
    Расширение режима : CM (complete main)
    Параметр Endianness формата : Big
    Идентификатор кодека : A_AC3
    Продолжительность : 1 ч. 45 м.
    Вид битрейта : Постоянный
    Битрейт : 192 Кбит/сек
    Каналы : 2 канала
    Расположение каналов : Front: L R
    Частота : 48,0 КГц
    Битовая глубина : 16 бит
    Метод сжатия : С потерями
    Размер потока : 145 Мбайт (0%)
    Заголовок : |MVO, Tretyakoff Production|
    Язык : Ukrainian
    Default : Нет
    Forced : Нет
    Аудио #5
    Идентификатор : 6
    Формат : DTS
    Формат/Информация : Digital Theater Systems
    Профиль формата : MA / Core
    Режим : 16
    Параметр Endianness формата : Big
    Идентификатор кодека : A_DTS
    Продолжительность : 1 ч. 45 м.
    Вид битрейта : Переменный
    Битрейт : Неизвестно / 1509 Кбит/сек
    Каналы : 6 каналов
    Расположение каналов : Front: L C R, Side: L R, LFE
    Частота : 48,0 КГц
    Битовая глубина : 24 бит
    Метод сжатия : Без потерь / Lossy
    Заголовок : |Дольский, Андрей Игоревич|
    Язык : Russian
    Default : Нет
    Forced : Нет
    Аудио #6
    Идентификатор : 7
    Формат : DTS
    Формат/Информация : Digital Theater Systems
    Профиль формата : MA / Core
    Режим : 16
    Параметр Endianness формата : Big
    Идентификатор кодека : A_DTS
    Продолжительность : 1 ч. 45 м.
    Вид битрейта : Переменный
    Битрейт : Неизвестно / 1509 Кбит/сек
    Каналы : 6 каналов
    Расположение каналов : Front: L C R, Side: L R, LFE
    Частота : 48,0 КГц
    Битовая глубина : 24 бит
    Метод сжатия : Без потерь / Lossy
    Заголовок : |original|
    Язык : English
    Default : Нет
    Forced : Нет
    Аудио #7
    Идентификатор : 8
    Формат : AC-3
    Формат/Информация : Audio Coding 3
    Расширение режима : CM (complete main)
    Параметр Endianness формата : Big
    Идентификатор кодека : A_AC3
    Продолжительность : 1 ч. 45 м.
    Вид битрейта : Постоянный
    Битрейт : 192 Кбит/сек
    Каналы : 2 канала
    Расположение каналов : Front: L R
    Частота : 48,0 КГц
    Битовая глубина : 16 бит
    Метод сжатия : С потерями
    Размер потока : 145 Мбайт (0%)
    Заголовок : |commentary with Amanda Seyfried and Gary Winick|
    Язык : English
    Default : Нет
    Forced : Нет
    Текст #1
    Идентификатор : 9
    Формат : UTF-8
    Идентификатор кодека : S_TEXT/UTF8
    Идентификатор кодека/Информация : UTF-8 Plain Text
    Заголовок : full
    Язык : Russian
    Default : Нет
    Forced : Нет
    Текст #2
    Идентификатор : 10
    Формат : UTF-8
    Идентификатор кодека : S_TEXT/UTF8
    Идентификатор кодека/Информация : UTF-8 Plain Text
    Заголовок : full
    Язык : Ukrainian
    Default : Нет
    Forced : Нет
    Текст #3
    Идентификатор : 11
    Формат : UTF-8
    Идентификатор кодека : S_TEXT/UTF8
    Идентификатор кодека/Информация : UTF-8 Plain Text
    Заголовок : full
    Язык : English
    Default : Нет
    Forced : Нет
    Текст #4
    Идентификатор : 12
    Формат : UTF-8
    Идентификатор кодека : S_TEXT/UTF8
    Идентификатор кодека/Информация : UTF-8 Plain Text
    Заголовок : commentary
    Язык : English
    Default : Нет
    Forced : Нет
    Меню
    00:00:00.000 : :1. Fact Checker
    00:06:27.012 : :2. My Sweet Sophia
    00:10:30.213 : :3. The Secretaries of Juliet
    00:18:09.672 : :4. The Most Amazing Day
    00:26:17.201 : :5. She's Come To Find Her Lorenzo
    00:30:36.460 : :6. A Story Worth Telling
    00:33:54.950 : :7. The First Lorenzo
    00:40:29.510 : :8. Life Is The Messy Bits
    00:46:29.495 : :9. I Have A Good Feeling About This
    00:52:34.943 : :10. Do You Believe In Destiny?
    00:57:49.800 : :11. One Of The Great Joys In Life
    01:03:22.382 : :12. Charlie's Apology
    01:07:39.764 : :13. Carpazo Wine
    01:15:08.963 : :14. Don't Wait 50 Years Like I Did
    01:21:20.709 : :15. Going To Be Published
    01:27:43.383 : :16. The Wedding Ceremony
    01:31:27.774 : :17. What If
    01:35:06.784 : :18. Made For Each Other

    Скриншоты








    Промо Кадры & фотки с премьеры фильма


    Цитата:
    Цитата:

    За украінськi доріжки велика подяка hurtom
    Цитата:
    Цитата:

    Ванесса Редгрейв и Франко Неро — муж и жена в реальной жизни.
    Изначально Хью Дэнси должен был сыграть одну из ролей, но был заменен Гаэлем Гарсиа Берналем.
    Для съемок фильма нужно было на два дня закрыть внутренний дворик Дома Джульетты, и киношникам пришлось три месяца уговаривать власти Вероны это сделать.
    Цитата:
    Цитата:

    Дольский, Андрей Игоревич_Письма к Джульете: Прекрасная романтическая комедия, которая мне в своё время в первую очередь понравилась из-за Аманды Зикфрид. Кажется это первый фильм в котором я её заметил, после чего был с Мерил Стрип на тему песен Аббы. Там у Аманды фигурка получше. Мне такой типаж девушек всегда нравился и нравится, хотя больше со стороны. Помимо Аманды мне понравился сюжет, очень классная задумка с письмами и секретаршами, да и в целом картина оставляет хорошее настроение и впечатление после просмотра. Ванесса очень мила в этой роли, и конечно Франко Неро. Правильный выбор Гари Виника. Лучше чем Франко никто из итальянских актёров не мог бы подойти на эту роль. Всё ещё впечатляет, и конечно глаза в первую очередь. Сразу вспоминаются старые фильмы и в первую очередь знаменитые спагети-вестерны. И как сюрприз для концовки фильма он просто великолепен. Такого стоило искать...
    Скачать .torrent

    Скачать торрент-файл бесплатно и на максимальной скорости!

    Как скачивать? · Что такое торрент? · Рейтинг и ограничения

    !ВНИМАНИЕ!
    Сайт не распространяет и не хранит электронные версии произведений, а занимается лишь лишь предоставлением доступа к создаваемому пользователями каталогу ссылок на торрент-файлы, которые содержат только списки хеш-сумм, убедительная просьба с жалобами обращаться напрямую к пользователю. Файлы для обмена на трекере предоставлены пользователями сайта, и администрация не несёт ответственности за их содержание. Просьба не заливать файлы, защищенные авторскими правами, а также файлы нелегального содержания!


    _________________
    [Профиль] [ЛС]
    Показать сообщения:    
    Ответить на тему

    Текущее время: Сегодня, в 08:56

    Часовой пояс: GMT + 2



    Вы не можете начинать темы
    Вы не можете отвечать на сообщения
    Вы не можете редактировать свои сообщения
    Вы не можете удалять свои сообщения
    Вы не можете голосовать в опросах
    Вы не можете прикреплять файлы к сообщениям
    Вы не можете скачивать файлы