BitTorrentTracker PerecTracker.org
BitTorrentTracker PerecTracker.org
    
Регистрация  ·  Вход
 
 · 
Забыли пароль?

  • Местный герой / Local Hero (Билл Форсайт / Bill Forsyth) [1983, Великобритания, драма, мелодрама, комедия, WEB-DL 1080p] MVO (ТВЦ) + Original Eng + Sub Rus, Eng

    Ответить на тему
     
    Автор Сообщение

    Light

    Создавать темы 18-Сен-2016 23:50

           

    [Цитировать]

    Местный герой / Local Hero
    «»
    Год выпуска: 1983
    Страна: Великобритания
    Производство: Enigma Productions, Goldcrest Films International
    Жанр: Драма, мелодрама, комедия
    Продолжительность: 01:51:19
    Перевод: Профессиональный (многоголосый закадровый) | ТВЦ
    Оригинальная аудиодорожка: Английский
    Субтитры: Русские, английские
    Режиссёр: Билл Форсайт
    В ролях: Берт Ланкастер, Питер Ригерт, Фултон Маккэй, Дэнис Лоусон, Норман Чансер, Питер Капальди, Рикки Фултон, Алекс Нортон, Дженни Сигроув, Дженнифер Блэк и др.
    Описание: Сотрудник нефтяной компании KNOX Макинтайр отправляется в шотландскую глушь для решения вопроса о приобретении территории для строительства нефтеперерабатывающего завода. От своего босса, эксцентричного мистера Хаппера, который проходит курс психотерапии у не менее эксцентричного психотерапевта Моритца, он получает особое задание – наблюдать за созвездием Девы и сообщать обо всех необычных событиях в северном небе.
    Приехав на место, Мак чудесным образом оказывается заворожен красотой местных пейзажей, богатым на зрелища звёздным небом, воздухом и приветливыми жителями небольшого поселения, расположившегося вдоль береговой линии залива. Дела идут неплохо: местные жители рады принять щедрое предложение нефтяной компании и уже готовятся стать богатыми, однако Маку уже не по душе конечная цель всего этого предприятия.


    Сэмпл
    Качество: WEB-DL 1080p
    Формат: MKV
    Видео: MPEG-4 AVC: ~13300 kbps / 1920x1040 / 24.000 fps / 1.85:1
    Аудио: Russian: AC3 / 2.0 / 48 kHz / 192 kbps | ТВЦ
    Аудио: English: E-AC3 / 2.0 / 48 kHz / 224 kbps | Оригинальный

    MediaInfoXP

    GeneralUnique ID : 195179620370428340511631329715317140304 (0x92D63A40190650238A3F644042BC6B50)Complete name : D:\Local.Hero.1983.1080p.WEB-DL.Rus.Eng.x264-iTunes.mkvFormat : MatroskaFormat version : Version 4 / Version 2File size : 10.9 GiBDuration : 1h 51mnOverall bit rate mode : VariableOverall bit rate : 14.0 MbpsEncoded date : UTC 2016-09-08 15:35:59Writing application : mkvmerge v9.4.0 ('Knurl') 64bitWriting library : libebml v1.3.4 + libmatroska v1.4.5
    VideoID : 1Format : AVCFormat/Info : Advanced Video CodecFormat profile : High@L4Format settings, CABAC : YesFormat settings, ReFrames : 4 framesCodec ID : V_MPEG4/ISO/AVCDuration : 1h 51mnBit rate mode : VariableBit rate : 13.6 MbpsMaximum bit rate : 15.0 MbpsWidth : 1 920 pixelsHeight : 1 040 pixelsDisplay aspect ratio : 1.85:1Frame rate mode : ConstantFrame rate : 24.000 fpsColor space : YUVChroma subsampling : 4:2:0Bit depth : 8 bitsScan type : ProgressiveBits/(Pixel*Frame) : 0.284Stream size : 10.6 GiB (97%)Writing library : x264 core 148 r2623 d5b2374Encoding settings : cabac=1 / ref=4 / deblock=1:-1:-1 / analyse=0x3:0x133 / me=umh / subme=9 / psy=1 / psy_rd=1.00:0.15 / mixed_ref=1 / me_range=24 / chroma_me=1 / trellis=2 / 8x8dct=1 / cqm=0 / deadzone=21,11 / fast_pskip=1 / chroma_qp_offset=-3 / threads=32 / lookahead_threads=5 / sliced_threads=0 / nr=150 / decimate=1 / interlaced=0 / bluray_compat=0 / constrained_intra=0 / bframes=8 / b_pyramid=2 / b_adapt=2 / b_bias=0 / direct=3 / weightb=1 / open_gop=0 / weightp=2 / keyint=120 / keyint_min=61 / scenecut=0 / intra_refresh=0 / rc_lookahead=120 / rc=crf / mbtree=1 / crf=18.0 / qcomp=0.60 / qpmin=0 / qpmax=69 / qpstep=4 / vbv_maxrate=15000 / vbv_bufsize=31250 / crf_max=0.0 / nal_hrd=vbr / filler=0 / ip_ratio=1.40 / aq=3:1.00Language : EnglishDefault : YesForced : NoColor range : LimitedColor primaries : BT.709Transfer characteristics : BT.709Matrix coefficients : BT.709
    Audio #1ID : 2Format : AC-3Format/Info : Audio Coding 3Mode extension : CM (complete main)Format settings, Endianness : BigCodec ID : A_AC3Duration : 1h 51mnBit rate mode : ConstantBit rate : 192 KbpsChannel(s) : 2 channelsChannel positions : Front: L RSampling rate : 48.0 KHzFrame rate : 31.250 fps (1536 spf)Compression mode : LossyStream size : 153 MiB (1%)Title : ТВЦLanguage : RussianDefault : YesForced : No
    Audio #2ID : 3Format : E-AC-3Format/Info : Audio Coding 3Format settings, Endianness : BigCodec ID : A_EAC3Duration : 1h 51mnBit rate mode : ConstantBit rate : 224 KbpsChannel(s) : 2 channelsChannel positions : Front: L RSampling rate : 48.0 KHzFrame rate : 187.500 fps (256 spf)Compression mode : LossyDelay relative to video : 32msStream size : 178 MiB (2%)Language : EnglishDefault : NoForced : No
    Text #1ID : 4Format : UTF-8Codec ID : S_TEXT/UTF8Codec ID/Info : UTF-8 Plain TextDuration : 1h 45mnBit rate : 112 bpsCount of elements : 1529Stream size : 87.3 KiB (0%)Language : RussianDefault : YesForced : No
    Text #2ID : 5Format : UTF-8Codec ID : S_TEXT/UTF8Codec ID/Info : UTF-8 Plain TextDuration : 1h 48mnBit rate : 58 bpsCount of elements : 1850Stream size : 46.2 KiB (0%)Language : EnglishDefault : NoForced : No

    Скриншот с названием фильма

    Скриншоты

    Скачать .torrent

    Скачать торрент-файл бесплатно и на максимальной скорости!

    Как скачивать? · Что такое торрент? · Рейтинг и ограничения

    !ВНИМАНИЕ!
    Сайт не распространяет и не хранит электронные версии произведений, а занимается лишь лишь предоставлением доступа к создаваемому пользователями каталогу ссылок на торрент-файлы, которые содержат только списки хеш-сумм, убедительная просьба с жалобами обращаться напрямую к пользователю. Файлы для обмена на трекере предоставлены пользователями сайта, и администрация не несёт ответственности за их содержание. Просьба не заливать файлы, защищенные авторскими правами, а также файлы нелегального содержания!


    _________________
    [Профиль] [ЛС]
    Показать сообщения:    
    Ответить на тему

    Текущее время: Сегодня, в 00:25

    Часовой пояс: GMT + 2



    Вы не можете начинать темы
    Вы не можете отвечать на сообщения
    Вы не можете редактировать свои сообщения
    Вы не можете удалять свои сообщения
    Вы не можете голосовать в опросах
    Вы не можете прикреплять файлы к сообщениям
    Вы не можете скачивать файлы