BitTorrentTracker PerecTracker.org
BitTorrentTracker PerecTracker.org
    
Регистрация  ·  Вход
 
 · 
Забыли пароль?

  • Сладкое прощание Веры (Александра Бутор) [2014, Беларусь, психологическая драма, DVB] Original Rus

    Ответить на тему
     
    Автор Сообщение

    Light

    Создавать темы 18-Сен-2016 23:50

           

    [Цитировать]

    Сладкое прощание Веры
    Страна: Республика Беларусь
    Производство: Беларусьфильм
    Жанр: психологическая драма
    Год выпуска: 2014
    Продолжительность: 01:39:03
    Перевод: Не требуется
    Cубтитры: нет
    Оригинальная аудиодорожка: русский
    Режиссер: Александра Бутор
    В ролях: Павел Южаков-Харланчук, Юозас Будрайтис, Неле Савиченко-Климене, Сергей Журавель, Анна Полупанова, Татьяна Бовкалова, Алёна Сидорова, Виктор Манаев, Елена Побегаева
    Описание: Бывшая стюардесса Вера всю жизнь ждала свою единственную любовь - капитана авиалайнера, который так и не решился ради нее бросить свою семью. На склоне лет она остается без работы, родных, друзей, с мучительными воспоминаниями. Опасаясь внезапной смерти, зная, что о ней никто не сможет позаботиться, Вера решает заранее организовать собственные похороны и приглашает к себе агента из бюро ритуальных услуг. Им оказывается романтичный парень. Между героями вспыхивает любовь, в которой они не смеют признаться даже себе. Время, проведенное рядом с этим человеком, становится для Веры самым сладким в жизни...
    Доп. информация:
    Сценаристы: Александра Бутор, Юлия Гирель
    Оператор: Андрей Воскресенский
    Художник: Михаил Кузьмин
    Премьера: 7 мая 2015, 15 мая 2015
    Запись потока *.ts с наземного цифрового телеканала "СТВ - столичное телевидение (Минск)".
    Релиз:

    Благодарность: за помощь с недостающим материалом Bartimeyse. Большое спасибо!
    Качество: DVB
    Контейнер: TS
    Видео кодек: H.264
    Аудио кодек: MP2
    Видео: MPEG4 Video (H264) 720(785)x576 (49:36) 25fps, 2 360 kb/s
    Аудио: MPEG Audio 48000Hz stereo 256kbps
    Сэмпл: https://www.sendspace.com/file/p23qqx

    MediaInfo

    GeneralID : 1 (0x1)Complete name : D:\Новая земля 2\Художественные фильмы\Сладкое прощание Веры (2014)\Сладкое прощание Веры (2014).tsFormat : MPEG-TSFile size : 1.91 GiBDuration : 1 h 39 minOverall bit rate mode : VariableOverall bit rate : 2 755 kb/s
    VideoID : 513 (0x201)Menu ID : 1 (0x1)Format : AVCFormat/Info : Advanced Video CodecFormat profile : Main@L3Format settings, CABAC : YesFormat settings, ReFrames : 4 framesCodec ID : 27Duration : 1 h 39 minBit rate : 2 360 kb/sWidth : 720 pixelsHeight : 576 pixelsDisplay aspect ratio : 4:3Frame rate : 25.000 FPSStandard : PALColor space : YUVChroma subsampling : 4:2:0Bit depth : 8 bitsScan type : MBAFFScan type, store method : Separated fieldsScan order : Top Field FirstBits/(Pixel*Frame) : 0.228Stream size : 1.63 GiB (86%)Color range : LimitedColor primaries : BT.601 PALTransfer characteristics : BT.470 System B, BT.470 System GMatrix coefficients : BT.601
    AudioID : 514 (0x202)Menu ID : 1 (0x1)Format : MPEG AudioFormat version : Version 1Format profile : Layer 2Codec ID : 3Duration : 1 h 39 minBit rate mode : ConstantBit rate : 256 kb/sChannel(s) : 2 channelsSampling rate : 48.0 kHzCompression mode : LossyStream size : 181 MiB (9%)Language : English

    Скриншот c названием фильма

    Скриншоты

    Скачать .torrent

    Скачать торрент-файл бесплатно и на максимальной скорости!

    Как скачивать? · Что такое торрент? · Рейтинг и ограничения

    !ВНИМАНИЕ!
    Сайт не распространяет и не хранит электронные версии произведений, а занимается лишь лишь предоставлением доступа к создаваемому пользователями каталогу ссылок на торрент-файлы, которые содержат только списки хеш-сумм, убедительная просьба с жалобами обращаться напрямую к пользователю. Файлы для обмена на трекере предоставлены пользователями сайта, и администрация не несёт ответственности за их содержание. Просьба не заливать файлы, защищенные авторскими правами, а также файлы нелегального содержания!


    _________________
    [Профиль] [ЛС]
    Показать сообщения:    
    Ответить на тему

    Текущее время: Сегодня, в 07:59

    Часовой пояс: GMT + 2



    Вы не можете начинать темы
    Вы не можете отвечать на сообщения
    Вы не можете редактировать свои сообщения
    Вы не можете удалять свои сообщения
    Вы не можете голосовать в опросах
    Вы не можете прикреплять файлы к сообщениям
    Вы не можете скачивать файлы