BitTorrentTracker PerecTracker.org
BitTorrentTracker PerecTracker.org
    
Регистрация  ·  Вход
 
 · 
Забыли пароль?

  • Шаман / сезон: 3 / Серии: 1-32 из 32 (Максим Кубринский, Дмитрий Аверин (II)) [2016, Россия, Драма, криминал, HDTVRip]

    Ответить на тему
     
    Автор Сообщение

    rechyn

    Создавать темы 18-Сен-2016 20:12

           

    [Цитировать]

    Шаман - 3 Новая угрозаГод выпуска: 2016
    Производитель : Россия, ООО "Гамма-продакшн"
    Жанр: Драма, криминал
    Продолжительность: 45 мин.
    Cубтитры: нет
    Режиссер: Максим Кубринский, Дмитрий Аверин (II)
    В ролях: Владимир Скворцов, Сергей Мардарь, Кирилл Щербина, Екатерина Тарасова, Игорь Ботвин, Нелли Попова, Екатерина Миронова (II), Софья Миронова, Георгий Гаевский, Владимир Матвеев, Ксения Каталымова, Максим Ханжов, Всеволод Цурило, Вадим Волков, Василий Гузов, Сергей Агафонов, Роман Грибков, Иван Мартынов (II), Юлия Хамидуллина, Олег Жилин, Александр Лазарев (III), Павел Сергеев, Андрей Гульнев, Алексей Васильев (II), Александр Колесник, Олег Харитонов, Владимир Розыграев, Светлана Щедрина, Жанна Куприянова, Снежана Прудько, Александр Волков (VII), Василий Юркевич, Глеб Денисов, Сергей Малюгов, Анастасия Тюнина, Сергей Сафронов, Игорь Грабузов, Артём Цыпин
    Описание: В очередном сезоне Ивану Шаманову пришлось завершить отношения с давней возлюбленной. Однако, симпатичного парня не оставляют без внимания новые интересные знакомые, спешащие утешить одинокого следователя. Не смотря на глобальные перемены в личной жизни, профессиональная деятельность ключевого персонажа осталась прежней: труженик предпочитает вести непримиримую борьбу с многочисленными злоумышленниками. И на этот раз судьба свела его с человеком, в руках которого заключена небывалая сила. Успешный опытный адвокат Штольц прекрасно разбирается в законах, и, разумеется, умело оперирует ими в суде, преподнося факты в том свете, который выгоден его клиентам.
    Доп. информация:
    Все раздачи сериала
    Сэмпл
    Качество: HDTVRip
    Формат: AVI
    Видео кодек: XviD
    Аудио кодек: AC3
    Видео: 720x400 (1.80:1), 25 fps, XviD build 743 ~1548 kbps avg, 0.22 bit/pixel
    Аудио: 48 kHz, AC3 Dolby Digital, 2/0 (L,R) ch, ~192.00 kbps avg

    MI

    General
    Complete name : X:\раздачи\Shaman-3 (2016).HDTVRip.RG.Russkie.serialy.&.Files-x.Shaman-3 (2016).HDTVRip.RG.Russkie.serialy.&.Files-x.avi
    Format : AVI
    Format/Info : Audio Video Interleave
    File size : 550 MiB
    Duration : 44mn 53s
    Overall bit rate : 1 713 Kbps
    Writing application : VirtualDubMod 1.5.10.3 | www.virtualdub-fr.org || (build 2550/release)
    Writing library : VirtualDubMod build 2550/release
    Video
    ID : 0
    Format : MPEG-4 Visual
    Format profile : Advanced Simple@L5
    Format settings, BVOP : 1
    Format settings, QPel : No
    Format settings, GMC : No warppoints
    Format settings, Matrix : Custom
    Codec ID : XVID
    Codec ID/Hint : XviD
    Duration : 44mn 53s
    Bit rate : 1 511 Kbps
    Width : 720 pixels
    Height : 400 pixels
    Display aspect ratio : 16:9
    Frame rate : 25.000 fps
    Color space : YUV
    Chroma subsampling : 4:2:0
    Bit depth : 8 bits
    Scan type : Progressive
    Compression mode : Lossy
    Bits/(Pixel*Frame) : 0.210
    Stream size : 485 MiB (88%)
    Writing library : XviD 73
    Audio
    ID : 1
    Format : AC-3
    Format/Info : Audio Coding 3
    Mode extension : CM (complete main)
    Format settings, Endianness : Big
    Codec ID : 2000
    Duration : 44mn 53s
    Bit rate mode : Constant
    Bit rate : 192 Kbps
    Channel(s) : 2 channels
    Channel positions : Front: L R
    Sampling rate : 48.0 KHz
    Frame rate : 31.250 fps (1536 spf)
    Compression mode : Lossy
    Stream size : 61.6 MiB (11%)
    Alignment : Split accross interleaves
    Interleave, duration : 40 ms (1.00 video frame)
    Interleave, preload duratio : 500 ms

    Скриншоты


    Скачать .torrent

    Скачать торрент-файл бесплатно и на максимальной скорости!

    Как скачивать? · Что такое торрент? · Рейтинг и ограничения

    !ВНИМАНИЕ!
    Сайт не распространяет и не хранит электронные версии произведений, а занимается лишь лишь предоставлением доступа к создаваемому пользователями каталогу ссылок на торрент-файлы, которые содержат только списки хеш-сумм, убедительная просьба с жалобами обращаться напрямую к пользователю. Файлы для обмена на трекере предоставлены пользователями сайта, и администрация не несёт ответственности за их содержание. Просьба не заливать файлы, защищенные авторскими правами, а также файлы нелегального содержания!


    _________________
    [Профиль] [ЛС]
    Показать сообщения:    
    Ответить на тему

    Текущее время: Сегодня, в 22:01

    Часовой пояс: GMT + 2



    Вы не можете начинать темы
    Вы не можете отвечать на сообщения
    Вы не можете редактировать свои сообщения
    Вы не можете удалять свои сообщения
    Вы не можете голосовать в опросах
    Вы не можете прикреплять файлы к сообщениям
    Вы не можете скачивать файлы