BitTorrentTracker PerecTracker.org
BitTorrentTracker PerecTracker.org
    
Регистрация  ·  Вход
 
 · 
Забыли пароль?

  • Жемчуга / Серии: 1-24 из 24 (Сергей Краснов) [2016, мелодрама HDTVRip]

    Ответить на тему
     
    Автор Сообщение

    rechyn

    Создавать темы 18-Сен-2016 20:09

           

    [Цитировать]

    ЖемчугаГод выпуска: 2016
    Производитель : Россия, К/к Русское
    Жанр: Драма, криминал
    Продолжительность: 45 мин.
    Cубтитры: нет
    Режиссер: Сергей Краснов
    В ролях: Полина Стрельникова, Александр Домогаров, Мария Куликова, Мария Голубкина, Елена Захарова, Анна Якунина, Сергей Ланбамин, Артём Осипов, Юлия Галкина, Иван Жидков, Любовь Германова, Марина Яковлева, Надежда Бахтина, Михаил Солодко, Афина Кондрашова, Виталия Корниенко, Василий Шмаков, Игорь Филиппов, Ольга Юрасова
    Описание: Женя Ладонежская родилась в счастливой, любящей и обеспеченной семье. У нее были прекрасные родители и большое наследство: просторная квартира, бизнес отца и роскошный антиквариат. Но все это у нее отобрали. Новые бизнес-партнеры и друзья семьи - Александр Головин (Сергей Ланбамин) и его жена Зина (Анна Якунина) подстраивают автокатастрофу, и родители Жени погибают. После трагедии Головины оформляют опеку над десятилетней Женей, чтобы забрать все имущество и бизнес Ладонежских. Жизнь с Зинаидой и ее детьми превращается для девочки в кошмар. Получив желаемое, Зина вскоре сдает Женю в детский дом.Единственное, что Жене удается сберечь от своих опекунов – драгоценное жемчужное ожерелье, по легенде обладающее мистическими свойствами. С детства Женя верила в его волшебную силу – способность лечить, защищать и приносить удачу своему владельцу. Девочка дает себе обещание больше никогда не расставаться с ним
    Доп. информация:
    Все раздачи сериала
    Сэмпл
    Качество: HDTVRip
    Формат: AVI
    Видео кодек: XviD
    Аудио кодек: AC3
    Видео: 720x400 (1.80:1), 25 fps, XviD build 743 ~1548 kbps avg, 0.22 bit/pixel
    Аудио: 48 kHz, AC3 Dolby Digital, 2/0 (L,R) ch, ~192.00 kbps avg

    MI

    General
    Complete name : X:\раздачи\Жемчуга (2016).HDTVRip.RG.Russkie.serialy.&.Files-x.Жемчуга (2016).HDTVRip.RG.Russkie.serialy.&.Files-x.avi
    Format : AVI
    Format/Info : Audio Video Interleave
    File size : 549 MiB
    Duration : 44mn 14s
    Overall bit rate : 1 736 Kbps
    Writing application : VirtualDubMod 1.5.10.3 | www.virtualdub-fr.org || (build 2550/release)
    Writing library : VirtualDubMod build 2550/release
    Video
    ID : 0
    Format : MPEG-4 Visual
    Format profile : Advanced Simple@L5
    Format settings, BVOP : 1
    Format settings, QPel : No
    Format settings, GMC : No warppoints
    Format settings, Matrix : Custom
    Codec ID : XVID
    Codec ID/Hint : XviD
    Duration : 44mn 14s
    Bit rate : 1 534 Kbps
    Width : 720 pixels
    Height : 400 pixels
    Display aspect ratio : 16:9
    Frame rate : 25.000 fps
    Color space : YUV
    Chroma subsampling : 4:2:0
    Bit depth : 8 bits
    Scan type : Progressive
    Compression mode : Lossy
    Bits/(Pixel*Frame) : 0.213
    Stream size : 485 MiB (88%)
    Writing library : XviD 73
    Audio
    ID : 1
    Format : AC-3
    Format/Info : Audio Coding 3
    Mode extension : CM (complete main)
    Format settings, Endianness : Big
    Codec ID : 2000
    Duration : 44mn 14s
    Bit rate mode : Constant
    Bit rate : 192 Kbps
    Channel(s) : 2 channels
    Channel positions : Front: L R
    Sampling rate : 48.0 KHz
    Frame rate : 31.250 fps (1536 spf)
    Compression mode : Lossy
    Stream size : 60.8 MiB (11%)
    Alignment : Split accross interleaves
    Interleave, duration : 40 ms (1.00 video frame)
    Interleave, preload duration : 500 ms

    Скриншоты


    Скачать .torrent

    Скачать торрент-файл бесплатно и на максимальной скорости!

    Как скачивать? · Что такое торрент? · Рейтинг и ограничения

    !ВНИМАНИЕ!
    Сайт не распространяет и не хранит электронные версии произведений, а занимается лишь лишь предоставлением доступа к создаваемому пользователями каталогу ссылок на торрент-файлы, которые содержат только списки хеш-сумм, убедительная просьба с жалобами обращаться напрямую к пользователю. Файлы для обмена на трекере предоставлены пользователями сайта, и администрация не несёт ответственности за их содержание. Просьба не заливать файлы, защищенные авторскими правами, а также файлы нелегального содержания!


    _________________
    [Профиль] [ЛС]
    Показать сообщения:    
    Ответить на тему

    Текущее время: Сегодня, в 08:00

    Часовой пояс: GMT + 2



    Вы не можете начинать темы
    Вы не можете отвечать на сообщения
    Вы не можете редактировать свои сообщения
    Вы не можете удалять свои сообщения
    Вы не можете голосовать в опросах
    Вы не можете прикреплять файлы к сообщениям
    Вы не можете скачивать файлы