BitTorrentTracker PerecTracker.org
BitTorrentTracker PerecTracker.org
    
Регистрация  ·  Вход
 
 · 
Забыли пароль?

  • Вечерний квартал 95 Выпуск 92. В Юрмале, Часть 2 [2016.09.17, Юмористическое шоу, концерт, сатира, SATRip]

    Ответить на тему
     
    Автор Сообщение

    rechyn

    Создавать темы 18-Сен-2016 20:00

           

    [Цитировать]

    Вечерний квартал 95 Выпуск 92. В Юрмале, Часть 2 [2016.09.17] -Телекомпания: 1+1
    Производство: "Студия 95 квартал", Телеканал "Интер"
    Жанр: Юмор
    Режиссер: Владимир Зеленский
    Актеры: Владимир Зеленский, Юрий Крапов, Елена Кравец, Евгений Кошевой, Сергей Казанин, Александр Пикалов, Юрий Корявченков
    Описание:
    Ребята из "Вечернего квартала" продолжают устанавливать свои правила. И ни авторитет звезд шоу-бизнеса, ни статус влиятельных политиков, ни сам "президент Украины" не могут этому помешать. Здесь правила одни для всех, и "квартальщики" внимательно следят за тем, чтобы все "забавные законы" соблюдались. Злостных правонарушителей ребята из Квартала определяют по отсутствию улыбки на лице. Но в сегодня такие вряд ли найдутся, ведь у нас - юмор высшего класса от "Вечернего квартала".
    Релиз от: Хотт@быч
    Продолжительность: 01:25:22
    Качество видео: SATRip
    Субтитры: Отсутствуют
    Видео: MPEG4, XviD, 720x400 (16:9), 25.000 fps, 1 799 Kbps (0.250 bit/pixel)
    Аудио: MP3, 48.0 KHz, 2 ch, 128 Kbps, CBR

    Mediainfo:

    Общее
    Полное имя                               : D:\[1]\Вечерний квартал 95\Вечерний квартал 95. Выпуск №92. В Юрмале (2016.09.17).avi
    Формат                                   : AVI
    Формат/Информация                        : Audio Video Interleave
    Размер файла                             : 1,15 Гбайт
    Продолжительность                        : 1 ч. 25 м.
    Общий поток                              : 1936 Кбит/сек
    Программа кодирования                    : VirtualDubMod 1.5.10.3 | www.virtualdub-fr.org || (build 2550/release)
    Библиотека кодирования                   : VirtualDub build 29808/release
    Видео
    Идентификатор                            : 0
    Формат                                   : MPEG-4 Visual
    Профиль формата                          : Advanced Simple@L5
    Параметр BVOP формата                    : 3
    Параметр QPel формата                    : Нет
    Параметр GMC формата                     : Без точки перехода
    Параметр матрицы формата                 : Default (H.263)
    Идентификатор кодека                     : XVID
    Идентификатор кодека/Подсказка           : XviD
    Продолжительность                        : 1 ч. 25 м.
    Битрейт                                  : 1799 Кбит/сек
    Ширина                                   : 720 пикселей
    Высота                                   : 400 пикселей
    Соотношение сторон                       : 16:9
    Частота кадров                           : 25,000 кадров/сек
    Цветовое пространство                    : YUV
    Субдискретизация насыщенности            : 4:2:0
    Битовая глубина                          : 8 бит
    Тип развёртки                            : Прогрессивная
    Метод сжатия                             : С потерями
    Бит/(Пиксели*Кадры)                      : 0.250
    Размер потока                            : 1,07 Гбайт (93%)
    Библиотека кодирования                   : XviD 1.2.1 (UTC 2008-12-04)
    Аудио
    Идентификатор                            : 1
    Формат                                   : MPEG Audio
    Версия формата                           : Version 1
    Профиль формата                          : Layer 3
    Режим                                    : Joint stereo
    Расширение режима                        : MS Stereo
    Идентификатор кодека                     : 55
    Идентификатор кодека/Подсказка           : MP3
    Продолжительность                        : 1 ч. 25 м.
    Вид битрейта                             : Постоянный
    Битрейт                                  : 128 Кбит/сек
    Каналы                                   : 2 канала
    Частота                                  : 48,0 КГц
    Метод сжатия                             : С потерями
    Размер потока                            : 78,2 Мбайт (7%)
    Выравнивание                             : Соединение по промежуткам
    Продолжительность промежутка             : 40  мс. (1,00 видеокадр)
    Время предзагрузки промежутка            : 504  мс.
    Библиотека кодирования                   : LAME3.99r
    Настройки программы                      : -m j -V 4 -q 2 -lowpass 17 -b 128

    В выпуске::

    • Обама - кумир современных детей
    • Бородатая невестка - украинская Кончита Вурст
    • По-моему нам полная ж#па...
    • Слюнепускный сексосимвол - Оля Полякова в гостях у Сербского ТВ
    • Тупые американцы - Михаил Задорнов в США
    • Исповедь трезвого ГАИшника нетрезвому Батюшке
    • В Киеве - жить
    • Я люблю свою Родину

    Скриншоты:
    Скачать .torrent

    Скачать торрент-файл бесплатно и на максимальной скорости!

    Как скачивать? · Что такое торрент? · Рейтинг и ограничения

    !ВНИМАНИЕ!
    Сайт не распространяет и не хранит электронные версии произведений, а занимается лишь лишь предоставлением доступа к создаваемому пользователями каталогу ссылок на торрент-файлы, которые содержат только списки хеш-сумм, убедительная просьба с жалобами обращаться напрямую к пользователю. Файлы для обмена на трекере предоставлены пользователями сайта, и администрация не несёт ответственности за их содержание. Просьба не заливать файлы, защищенные авторскими правами, а также файлы нелегального содержания!


    _________________
    [Профиль] [ЛС]
    Показать сообщения:    
    Ответить на тему

    Текущее время: Сегодня, в 05:19

    Часовой пояс: GMT + 2



    Вы не можете начинать темы
    Вы не можете отвечать на сообщения
    Вы не можете редактировать свои сообщения
    Вы не можете удалять свои сообщения
    Вы не можете голосовать в опросах
    Вы не можете прикреплять файлы к сообщениям
    Вы не можете скачивать файлы