BitTorrentTracker PerecTracker.org
BitTorrentTracker PerecTracker.org
    
Регистрация  ·  Вход
 
 · 
Забыли пароль?

  • После многих бед / Серии: 1-4 из 4 (Валерий Девятилов) [2016, Мелодрама, HDTVRip]

    Ответить на тему
     
    Автор Сообщение

    rechyn

    Создавать темы 18-Сен-2016 19:46

           

    [Цитировать]

    После многих бед
    Год выпуска: 2016
    Производство: Русское
    Жанр: Мелодрама
    Продолжительность: 01:29:00
    Субтитры: Нет-Режиссёр: Валерий Девятилов-В ролях: Светлана Летуновская, Татьяна Лялина, Дмитрий Гудочкин, Александр Макогон, Виктория Адельфина, Даниил Вершинин-Описание: Успешная, сильная и несчастливая, она все поймет, но после все равно предаст! Регина и ее дочь Мила живут разной жизнью, мать в шоу бизнесе, дочь-медсестра. Регина, успешная женщина дизайнер-модельер, всегда на людях и в новостях. О Миле знают лишь больные. То, что происходит не меняет расстановку дел, делая лишь на время Милу чуточку счастливей. Однако девушка не подозревает, что ее роман всего лишь звено в цепочке плана, как подобраться к ее матери. Парень Милы хочет стать моделью в коллекции Регины, но вопреки его ожиданиям этот ход не дает результата, и он переходит к запасному, но более эффективному варианту с самой Региной...-Релиз группа: -Все раздачи сериала--Доп. информация: Серии сдвоены.-Качество: HDTVRip
    Формат: AVI
    Видео кодек: XviD
    Аудио кодек: AC3
    Видео: 720x400 (16:9), 25.000 fps, XviD build 73, 1 998 Kbps, 0.27 Bits/Pixel
    Аудио: 48 kHz, AC3 Dolby Digital, 2 ch, 192 Kbps

    MI

    General
    Complete name : Downloads\После многих бед.2016.HDTVRip.RG.Russkie.serialy.&.Files-x
    Format : AVI
    Format/Info : Audio Video Interleave
    File size : 1.37 GiB
    Duration : 1h 29mn
    Overall bit rate : 2 199 Kbps
    Writing application : VirtualDubMod 1.5.10.3 | www.virtualdub-fr.org || (build 2550/release)
    Writing library : VirtualDubMod build 2550/release
    Video #0
    ID : 0
    Format : MPEG-4 Visual
    Format profile : Advanced Simple@L5
    Format settings, BVOP : 1
    Format settings, QPel : No
    Format settings, GMC : No warppoints
    Format settings, Matrix : Custom
    Codec ID : XVID
    Codec ID/Hint : XviD
    Duration : 1h 29mn
    Bit rate : 1 998 Kbps
    Width : 720 pixels
    Height : 400 pixels
    Display aspect ratio : 16:9
    Frame rate : 25.000 fps
    Color space : YUV
    Chroma subsampling : 4:2:0
    Bit depth : 8 bits
    Scan type : Progressive
    Compression mode : Lossy
    Bits/(Pixel*Frame) : 0.277
    Stream size : 1.24 GiB (91%)
    Writing library : XviD 73
    Audio #1
    ID : 1
    Format : AC-3
    Format/Info : Audio Coding 3
    Mode extension : CM (complete main)
    Format settings, Endianness : Big
    Codec ID : 2000
    Duration : 1h 29mn
    Bit rate mode : Constant
    Bit rate : 192 Kbps
    Channel(s) : 2 channels
    Channel positions : Front: L R
    Sampling rate : 48.0 KHz
    Bit depth : 16 bits
    Compression mode : Lossy
    Stream size : 122 MiB (9%)
    Alignment : Split accross interleaves
    Interleave, duration : 40 ms (1.00 video frame)
    Interleave, preload duration : 500 ms

    Скриншоты

    Скачать .torrent

    Скачать торрент-файл бесплатно и на максимальной скорости!

    Как скачивать? · Что такое торрент? · Рейтинг и ограничения

    !ВНИМАНИЕ!
    Сайт не распространяет и не хранит электронные версии произведений, а занимается лишь лишь предоставлением доступа к создаваемому пользователями каталогу ссылок на торрент-файлы, которые содержат только списки хеш-сумм, убедительная просьба с жалобами обращаться напрямую к пользователю. Файлы для обмена на трекере предоставлены пользователями сайта, и администрация не несёт ответственности за их содержание. Просьба не заливать файлы, защищенные авторскими правами, а также файлы нелегального содержания!


    _________________
    [Профиль] [ЛС]
    Показать сообщения:    
    Ответить на тему

    Текущее время: Сегодня, в 22:20

    Часовой пояс: GMT + 2



    Вы не можете начинать темы
    Вы не можете отвечать на сообщения
    Вы не можете редактировать свои сообщения
    Вы не можете удалять свои сообщения
    Вы не можете голосовать в опросах
    Вы не можете прикреплять файлы к сообщениям
    Вы не можете скачивать файлы