BitTorrentTracker PerecTracker.org
BitTorrentTracker PerecTracker.org
    
Регистрация  ·  Вход
 
 · 
Забыли пароль?

  • Отель последней надежды / Серии: 1-4 из 4 (Петр Амелин) [2016, Детектив, мелодрама, WEBRip]

    Ответить на тему
     
    Автор Сообщение

    rechyn

    Создавать темы 18-Сен-2016 19:42

           

    [Цитировать]

    Отель последней надежды
    -Год выпуска: 2016
    Производство: Россия / ООО "Свэлл Фильм"
    Жанр: Детектив, мелодрама
    Продолжительность: 00:44:00
    Субтитры: Нет

    Режиссёр: Петр Амелин
    В ролях: Эмилия Спивак, Павел Делонг, Анна Старшенбаум, Сергей Марин, Оксана Базилевич, Сергей Барковский, Эра Зиганшина, Роман Нечаев, Сергей Колос, Павел Григорьев
    Описание: Жизнь рухнула в одно мгновенье: от Нади Звонарёвой ушёл муж. А тут еще отель, в котором она работает начальником службы портье, готовится к визиту короля. Введены строжайшие меры безопасности, а вокруг Нади, как специально, начинают твориться странные вещи: на неё нападают грабители, кто-то сжигает семейные фотографии, подбрасывает в квартиру чучело мужа… И всё это на глазах у начальника службы охраны короля — Дэна Уолша, которому теперь нужно во всём разобраться.-Релиз группа: -Все раздачи сериала l Сэмпл-Качество: WEBRip
    Формат: AVI
    Видео кодек: XviD
    Аудио кодек: AC3
    Видео: 720x400 (16:9), 25.000 fps, XviD build 73, 1543 Kbps, 0.21 Bits/Pixel
    Аудио: 48 kHz, AC3 Dolby Digital, 2 ch, 192 Kbps

    MI

    General
    Complete name : X:\раздачи\Отель последней надежды.2016.WEB-DLRip.RG.Russkie.serialy.&.Files-x
    Format/Info : Audio Video Interleave
    File size : 550 MiB
    Duration : 44mn 5s
    Overall bit rate : 1 745 Kbps
    Writing application : VirtualDubMod 1.5.10.3 | www.virtualdub-fr.org || (build 2550/release)
    Writing library : VirtualDubMod build 2550/release
    Video
    ID : 0
    Format : MPEG-4 Visual
    Format profile : Advanced Simple@L5
    Format settings, BVOP : 1
    Format settings, QPel : No
    Format settings, GMC : No warppoints
    Format settings, Matrix : Custom
    Codec ID : XVID
    Codec ID/Hint : XviD
    Duration : 44mn 5s
    Bit rate : 1 543 Kbps
    Width : 720 pixels
    Height : 400 pixels
    Display aspect ratio : 16:9
    Frame rate : 25.000 fps
    Color space : YUV
    Chroma subsampling : 4:2:0
    Bit depth : 8 bits
    Scan type : Progressive
    Compression mode : Lossy
    Bits/(Pixel*Frame) : 0.214
    Stream size : 487 MiB (88%)
    Writing library : XviD 73
    Audio
    ID : 1
    Format : AC-3
    Format/Info : Audio Coding 3
    Mode extension : CM (complete main)
    Format settings, Endianness : Big
    Codec ID : 2000
    Duration : 44mn 5s
    Bit rate mode : Constant
    Bit rate : 192 Kbps
    Channel(s) : 2 channels
    Channel positions : Front: L R
    Sampling rate : 48.0 KHz
    Frame rate : 31.250 fps (1536 spf)
    Compression mode : Lossy
    Stream size : 60.6 MiB (11%)
    Alignment : Split accross interleaves
    Interleave, duration : 40 ms (1.00 video frame)
    Interleave, preload duration : 500 ms

    Скриншоты

    Скачать .torrent

    Скачать торрент-файл бесплатно и на максимальной скорости!

    Как скачивать? · Что такое торрент? · Рейтинг и ограничения

    !ВНИМАНИЕ!
    Сайт не распространяет и не хранит электронные версии произведений, а занимается лишь лишь предоставлением доступа к создаваемому пользователями каталогу ссылок на торрент-файлы, которые содержат только списки хеш-сумм, убедительная просьба с жалобами обращаться напрямую к пользователю. Файлы для обмена на трекере предоставлены пользователями сайта, и администрация не несёт ответственности за их содержание. Просьба не заливать файлы, защищенные авторскими правами, а также файлы нелегального содержания!


    _________________
    [Профиль] [ЛС]
    Показать сообщения:    
    Ответить на тему

    Текущее время: Сегодня, в 14:07

    Часовой пояс: GMT + 2



    Вы не можете начинать темы
    Вы не можете отвечать на сообщения
    Вы не можете редактировать свои сообщения
    Вы не можете удалять свои сообщения
    Вы не можете голосовать в опросах
    Вы не можете прикреплять файлы к сообщениям
    Вы не можете скачивать файлы