BitTorrentTracker PerecTracker.org
BitTorrentTracker PerecTracker.org
    
Регистрация  ·  Вход
 
 · 
Забыли пароль?

  • Месть нерожденному / Внутри / A l\'interieur (Александр Бустилло / Alexandre Bustillo, Жюльен Мори / Julien Maury) [2007, Франция, ужасы, триллер, BDRip 720p] DVO + VO (Д. Есарев) + Sub Rus, Eng, Fre + Original Fre

    Ответить на тему
     
    Автор Сообщение

    Light

    Создавать темы 17-Сен-2016 21:50

           

    [Цитировать]

    Месть нерожденному / Внутри / A l'interieur
    Страна: Франция
    Жанр: ужасы, триллер
    Год выпуска: 2007
    Продолжительность: 01:19:15
    Перевод 1: Профессиональный (двухголосый закадровый) - R5
    Перевод 2: Одноголосый закадровый - Д. Есарев
    Cубтитры: Russian, Ukrainian, French, English
    Оригинальная аудиодорожка: французский-Режиссер: Александр Бустилло / Alexandre Bustillo, Жюльен Мори / Julien Maury-В ролях: Элисон Паради, Жан-Баптист Табурен, Клод Люле, Доминик Фрот, Натали Руссел, Франсуа-Режи Маршассон, Беатрис Даль, Хайэм Зейтун, Тахар Рахим, Эммануэль Гез-Описание: Став виновницей автомобильной аварии, Сара потеряла мужа. Теперь вся ее жизнь посвящена ребенку, которого она скоро должна родить. Однако, каждый раз засыпая, женщина погружается в кошмар, который в скором времени станет для нее реальностью, но гораздо более страшной...-Релиз:
    by Skazhutin-Качество видео: BDRip | Encode by SbR
    Формат видео: MKV
    Видео: 1280x680 at 25.000 fps, x264@L4.1, crf, ~8861 kbps avg
    Аудио 1: Russian: 48 kHz, AC3, 3/2 (L,C,R,l,r) + LFE ch, ~384 kbps avg |Двухголосый закадровый|
    Аудио 2: Russian: 48 kHz, DTS, 3/2 (L,C,R,l,r) + LFE ch, ~1510 kbps avg |Одноголосый закадровый, Д. Есарев|
    Аудио 3: Ukrainian: 48 kHz, AC3, 2/0 (L,R) ch, ~192 kbps avg |Двухголосый закадровый, 1+1|
    Аудио 4: French: 48 kHz, DTS, 3/2 (L,C,R,l,r) + LFE ch, ~1509 kbps avg-
    • Скачать сэмпл-
    Сохранены оригинальные чаптеры как на Blu-ray.

    MediaInfo

    Format                      : Matroska
    Format version              : Version 2
    File size                   : 6.87 GiB
    Duration                    : 1 h 19 min
    Overall bit rate            : 12.4 Mb/s
    Movie name                  : À l'intérieur (2007) - Encode by SbR
    Encoded date                : UTC 2016-09-03 10:18:18
    Writing application         : mkvmerge v9.3.1 ('Mask Machine') 64bit
    Writing library             : libebml v1.3.4 + libmatroska v1.4.5
    Cover                       : Yes
    Attachments                 : cover.jpg / xlog.txt
    Video
    ID                          : 1
    Format                      : AVC
    Format/Info                 : Advanced Video Codec
    Format profile              : High@L4.1
    Format settings, CABAC      : Yes
    Format settings, ReFrames   : 9 frames
    Codec ID                    : V_MPEG4/ISO/AVC
    Duration                    : 1 h 19 min
    Bit rate                    : 8 571 kb/s
    Width                       : 1 280 pixels
    Height                      : 680 pixels
    Display aspect ratio        : 1.882
    Frame rate mode             : Constant
    Frame rate                  : 25.000 FPS
    Color space                 : YUV
    Chroma subsampling          : 4:2:0
    Bit depth                   : 8 bits
    Scan type                   : Progressive
    Bits/(Pixel*Frame)          : 0.394
    Stream size                 : 4.74 GiB (69%)
    Writing library             : x264 core 148 r2705kMod 3f5ed56
    Encoding settings           : cabac=1 / ref=9 / deblock=1:-2:-2 / analyse=0x3:0x133 / me=umh / subme=11 / psy=1 / fade_compensate=0.00 / psy_rd=1.00:0.00 / mixed_ref=1 / me_range=32 / chroma_me=1 / trellis=2 / 8x8dct=1 / cqm=0 / deadzone=21,11 / fast_pskip=1 / chroma_qp_offset=-2 / threads=12 / lookahead_threads=3 / sliced_threads=0 / nr=0 / decimate=1 / interlaced=0 / bluray_compat=0 / constrained_intra=0 / fgo=0 / bframes=10 / b_pyramid=2 / b_adapt=2 / b_bias=0 / direct=1 / weightb=1 / open_gop=0 / weightp=2 / keyint=250 / keyint_min=25 / scenecut=40 / intra_refresh=0 / rc_lookahead=60 / rc=crf / mbtree=0 / crf=16.0000 / qcomp=0.60 / qpmin=0 / qpmax=69 / qpstep=4 / vbv_maxrate=62500 / vbv_bufsize=78125 / crf_max=0.0 / nal_hrd=none / filler=0 / ip_ratio=1.40 / pb_ratio=1.30 / aq=1:0.80
    Language                    : French
    Default                     : Yes
    Forced                      : No
    Color range                 : Limited
    Color primaries             : BT.709
    Transfer characteristics    : BT.709
    Matrix coefficients         : BT.709
    Audio #1
    ID                          : 2
    Format                      : AC-3
    Format/Info                 : Audio Coding 3
    Mode extension              : CM (complete main)
    Format settings, Endianness : Big
    Codec ID                    : A_AC3
    Duration                    : 1 h 19 min
    Bit rate mode               : Constant
    Bit rate                    : 384 kb/s
    Channel(s)                  : 6 channels
    Channel positions           : Front: L C R, Side: L R, LFE
    Sampling rate               : 48.0 kHz
    Frame rate                  : 31.250 FPS (1536 spf)
    Compression mode            : Lossy
    Stream size                 : 218 MiB (3%)
    Title                       : Двухголосый
    Language                    : Russian
    Default                     : Yes
    Forced                      : No
    Audio #2
    ID                          : 3
    Format                      : DTS
    Format/Info                 : Digital Theater Systems
    Mode                        : 16
    Format settings, Endianness : Big
    Codec ID                    : A_DTS
    Duration                    : 1 h 19 min
    Bit rate mode               : Constant
    Bit rate                    : 1 510 kb/s
    Channel(s)                  : 6 channels
    Channel positions           : Front: L C R, Side: L R, LFE
    Sampling rate               : 48.0 kHz
    Frame rate                  : 93.750 FPS (512 spf)
    Bit depth                   : 24 bits
    Compression mode            : Lossy
    Stream size                 : 856 MiB (12%)
    Title                       : Есарев
    Language                    : Russian
    Default                     : No
    Forced                      : No
    Audio #3
    ID                          : 4
    Format                      : AC-3
    Format/Info                 : Audio Coding 3
    Mode extension              : CM (complete main)
    Format settings, Endianness : Big
    Codec ID                    : A_AC3
    Duration                    : 1 h 19 min
    Bit rate mode               : Constant
    Bit rate                    : 192 kb/s
    Channel(s)                  : 2 channels
    Channel positions           : Front: L R
    Sampling rate               : 48.0 kHz
    Frame rate                  : 31.250 FPS (1536 spf)
    Compression mode            : Lossy
    Stream size                 : 109 MiB (2%)
    Title                       : Двухголосый, 1+1
    Language                    : Ukrainian
    Default                     : No
    Forced                      : No
    Audio #4
    ID                          : 5
    Format                      : DTS
    Format/Info                 : Digital Theater Systems
    Mode                        : 16
    Format settings, Endianness : Big
    Codec ID                    : A_DTS
    Duration                    : 1 h 19 min
    Bit rate mode               : Constant
    Bit rate                    : 1 509 kb/s
    Channel(s)                  : 6 channels
    Channel positions           : Front: L C R, Side: L R, LFE
    Sampling rate               : 48.0 kHz
    Frame rate                  : 93.750 FPS (512 spf)
    Bit depth                   : 16 bits
    Compression mode            : Lossy
    Stream size                 : 855 MiB (12%)
    Language                    : French
    Default                     : No
    Forced                      : No
    Text #1
    ID                          : 6
    Format                      : UTF-8
    Codec ID                    : S_TEXT/UTF8
    Codec ID/Info               : UTF-8 Plain Text
    Language                    : Russian
    Default                     : No
    Forced                      : No
    Text #2
    ID                          : 7
    Format                      : UTF-8
    Codec ID                    : S_TEXT/UTF8
    Codec ID/Info               : UTF-8 Plain Text
    Language                    : Ukrainian
    Default                     : No
    Forced                      : No
    Text #3
    ID                          : 8
    Format                      : UTF-8
    Codec ID                    : S_TEXT/UTF8
    Codec ID/Info               : UTF-8 Plain Text
    Language                    : French
    Default                     : No
    Forced                      : No
    Text #4
    ID                          : 9
    Format                      : UTF-8
    Codec ID                    : S_TEXT/UTF8
    Codec ID/Info               : UTF-8 Plain Text
    Language                    : English
    Default                     : No
    Forced                      : No
    Menu
    00:00:00.000                : en:00:00:00.000
    00:05:02.400                : en:00:05:02.400
    00:11:20.280                : en:00:11:20.280
    00:15:00.000                : en:00:15:00.000
    00:21:16.000                : en:00:21:16.000
    00:26:37.000                : en:00:26:37.000
    00:31:52.000                : en:00:31:52.000
    00:36:51.000                : en:00:36:51.000
    00:40:57.640                : en:00:40:57.640
    00:45:56.480                : en:00:45:56.480
    00:51:07.000                : en:00:51:07.000
    01:01:45.000                : en:01:01:45.000
    01:03:20.000                : en:01:03:20.000
    01:06:40.480                : en:01:06:40.480
    01:10:12.000                : en:01:10:12.000
    01:15:15.000                : en:01:15:15.000

    Скриншоты

    Скачать .torrent

    Скачать торрент-файл бесплатно и на максимальной скорости!

    Как скачивать? · Что такое торрент? · Рейтинг и ограничения

    !ВНИМАНИЕ!
    Сайт не распространяет и не хранит электронные версии произведений, а занимается лишь лишь предоставлением доступа к создаваемому пользователями каталогу ссылок на торрент-файлы, которые содержат только списки хеш-сумм, убедительная просьба с жалобами обращаться напрямую к пользователю. Файлы для обмена на трекере предоставлены пользователями сайта, и администрация не несёт ответственности за их содержание. Просьба не заливать файлы, защищенные авторскими правами, а также файлы нелегального содержания!


    _________________
    [Профиль] [ЛС]
    Показать сообщения:    
    Ответить на тему

    Текущее время: Сегодня, в 11:02

    Часовой пояс: GMT + 2



    Вы не можете начинать темы
    Вы не можете отвечать на сообщения
    Вы не можете редактировать свои сообщения
    Вы не можете удалять свои сообщения
    Вы не можете голосовать в опросах
    Вы не можете прикреплять файлы к сообщениям
    Вы не можете скачивать файлы