BitTorrentTracker PerecTracker.org
BitTorrentTracker PerecTracker.org
    
Регистрация  ·  Вход
 
 · 
Забыли пароль?

  • Полтора шпиона / Central Intelligence (Роусон Маршалл Тёрбер / Rawson Marshall Thurber) [2016, США, боевик, комедия, криминал, BDRip-AVC] Dub + Original + Sub (rus, eng)

    Ответить на тему
     
    Автор Сообщение

    rechyn

    Создавать темы 17-Сен-2016 13:17

           

    [Цитировать]

    Полтора шпиона / Central Intelligence
    «Они попробуют спасти мир: малыш Харт и скала Джонсон»
    -Страна: США
    Жанр: боевик, комедия, криминал
    Год выпуска: 2016
    Продолжительность: 01:47:38
    Перевод: Профессиональный (дублированный) (iTunes)
    Оригинальная аудиодорожка: английский
    Cубтитры: русские (форс., полные) английские (полные, SDH)
    Навигация по главам: есть
    Режиссер: Роусон Маршалл Тёрбер / Rawson Marshall Thurber
    В ролях: Дуэйн Джонсон, Кевин Харт, Эми Райан, Даниэль Николет, Джейсон Бейтмен, Аарон Пол, Райан Хансен, Тим Гриффин, Тимоти Джон Смит
    Описание: от лайка в соцсети до спасения мира - один шаг. Сегодня ты френдишь бывшего одноклассника, а завтра - он тащит тебя под пули. Кто ж знал, что заядлый любитель пончиков превратится в похожего на скалу супершпиона.- -Качество: BDRip-AVC (исходник - BDRemux|CENTRAL_INTELLIGENCE_TC_REMUX_HDCLUB)
    Формат видео: MKV
    Видео: x264, 1152x480 (2.40:1), 23,976 fps, ~2600 kbps, 0.196 bit/pixel
    Аудио 1: 48 kHz, AC3 Dolby Digital, 3/2 (L,C,R,l,r) + LFE ch, ~384 kbps [русский]
    Аудио 2: 48 kHz, AC3 Dolby Digital, 3/2 (L,C,R,l,r) + LFE ch, ~448 kbps [английский]
    Формат субтитров: softsub (SRT)-MediaInfo | x264 log
    Format : Matroska
    Format version : Version 4 / Version 2
    File size : 2.63 GiB
    Duration : 1h 47mn
    Overall bit rate : 3 502 Kbps
    Movie name : Полтора шпиона / Central Intelligence (2016) :: AFM ::
    Encoded date : UTC 2016-09-15 14:38:05
    Writing application : mkvmerge v8.3.0 ('Over the Horizon') 32bit
    Writing library : libebml v1.3.1 + libmatroska v1.4.2
    Video
    ID : 1
    Format : AVC
    Format/Info : Advanced Video Codec
    Format profile : High@L4.1
    Format settings, CABAC : Yes
    Format settings, ReFrames : 11 frames
    Codec ID : V_MPEG4/ISO/AVC
    Duration : 1h 47mn
    Bit rate : 2 600 Kbps
    Width : 1 152 pixels
    Height : 480 pixels
    Display aspect ratio : 2.40:1
    Frame rate mode : Constant
    Frame rate : 23.976 fps
    Color space : YUV
    Chroma subsampling : 4:2:0
    Bit depth : 8 bits
    Scan type : Progressive
    Bits/(Pixel*Frame) : 0.196
    Stream size : 1.95 GiB (74%)
    Title : BDRip by AFM [RuTracker.org]
    Writing library : x264 core 148 r2705+54 9f484c1 t_mod_Custom [8-bit@all X86_64]
    Encoding settings : cabac=1 / ref=11 / deblock=1:-3:-2 / analyse=0x3:0x113 / me=umh / subme=10 / psy=1 / fade_compensate=0.00 / psy_rd=1.00:0.00 / mixed_ref=1 / me_range=32 / chroma_me=1 / trellis=2 / 8x8dct=1 / cqm=0 / deadzone=21,11 / fast_pskip=0 / chroma_qp_offset=-2 / threads=6 / lookahead_threads=1 / sliced_threads=0 / nr=0 / decimate=1 / interlaced=0 / bluray_compat=0 / constrained_intra=0 / fgo=0 / bframes=12 / b_pyramid=2 / b_adapt=2 / b_bias=0 / direct=1 / weightb=1 / open_gop=0 / weightp=2 / keyint=250 / keyint_min=23 / scenecut=40 / intra_refresh=0 / rc_lookahead=40 / rc=crf / mbtree=0 / crf=17.8000 / qcomp=0.65 / qpmin=0:0:0 / qpmax=69:69:69 / qpstep=4 / vbv_maxrate=50000 / vbv_bufsize=62500 / crf_max=0.0 / nal_hrd=none / filler=0 / ip_ratio=1.30 / pb_ratio=1.27 / aq=3:0.80 / aq-sensitivity=10.00 / aq-factor=1.00:1.00:1.00 / aq2=0 / aq3=0 / zones=148345,154834,q=30
    Language : English
    Default : Yes
    Forced : No
    Audio #1
    ID : 2
    Format : AC-3
    Format/Info : Audio Coding 3
    Mode extension : CM (complete main)
    Format settings, Endianness : Big
    Codec ID : A_AC3
    Duration : 1h 47mn
    Bit rate mode : Constant
    Bit rate : 384 Kbps
    Channel(s) : 6 channels
    Channel positions : Front: L C R, Side: L R, LFE
    Sampling rate : 48.0 KHz
    Compression mode : Lossy
    Stream size : 296 MiB (11%)
    Title : Dub, AC3 5.1 ~384 kbps
    Language : Russian
    Default : Yes
    Forced : No
    Audio #2
    ID : 3
    Format : AC-3
    Format/Info : Audio Coding 3
    Mode extension : CM (complete main)
    Format settings, Endianness : Big
    Codec ID : A_AC3
    Duration : 1h 47mn
    Bit rate mode : Constant
    Bit rate : 448 Kbps
    Channel(s) : 6 channels
    Channel positions : Front: L C R, Side: L R, LFE
    Sampling rate : 48.0 KHz
    Compression mode : Lossy
    Stream size : 345 MiB (13%)
    Title : Original, AC3 5.1 ~448 kbps
    Language : English
    Default : No
    Forced : No
    Text #1
    ID : 4
    Format : UTF-8
    Codec ID : S_TEXT/UTF8
    Codec ID/Info : UTF-8 Plain Text
    Title : forced
    Language : Russian
    Default : Yes
    Forced : No
    Text #2
    ID : 5
    Format : UTF-8
    Codec ID : S_TEXT/UTF8
    Codec ID/Info : UTF-8 Plain Text
    Language : Russian
    Default : No
    Forced : No
    Text #3
    ID : 6
    Format : UTF-8
    Codec ID : S_TEXT/UTF8
    Codec ID/Info : UTF-8 Plain Text
    Language : English
    Default : No
    Forced : No
    Text #4
    ID : 7
    Format : UTF-8
    Codec ID : S_TEXT/UTF8
    Codec ID/Info : UTF-8 Plain Text
    Title : SDH
    Language : English
    Default : No
    Forced : No
    Menu
    00:00:00.000 : en:Chapter 1
    00:09:12.051 : en:Chapter 2
    00:20:11.751 : en:Chapter 3
    00:30:31.078 : en:Chapter 4
    00:43:21.764 : en:Chapter 5
    00:52:42.492 : en:Chapter 6
    00:58:09.860 : en:Chapter 7
    01:10:12.457 : en:Chapter 8
    01:18:36.752 : en:Chapter 9
    01:28:56.287 : en:Chapter 10
    01:39:32.256 : en:Chapter 11

    x264

    x264 [info]: frame I:1714 Avg QP:16.93 size: 72452
    x264 [info]: frame P:33587 Avg QP:18.34 size: 29718
    x264 [info]: frame B:119533 Avg QP:20.27 size: 8623
    x264 [info]: consecutive B-frames: 2.3% 2.1% 5.8% 28.6% 17.5% 31.8% 5.4% 4.5% 0.7% 0.3% 0.1% 0.5% 0.3%
    x264 [info]: mb I I16..4: 4.2% 78.0% 17.8%
    x264 [info]: mb P I16..4: 0.8% 12.4% 1.7% P16..4: 33.4% 28.5% 16.6% 0.0% 0.0% skip: 6.6%
    x264 [info]: mb B I16..4: 0.0% 0.7% 0.1% B16..8: 39.5% 12.6% 4.1% direct: 4.7% skip:38.1% L0:42.8% L1:45.0% BI:12.2%
    x264 [info]: 8x8 transform intra:81.3% inter:61.2%
    x264 [info]: coded y,uvDC,uvAC intra: 90.9% 83.9% 65.0% inter: 24.0% 17.3% 3.9%
    x264 [info]: i16 v,h,dc,p: 27% 24% 6% 43%
    x264 [info]: i8 v,h,dc,ddl,ddr,vr,hd,vl,hu: 10% 11% 8% 9% 13% 13% 13% 11% 12%
    x264 [info]: i4 v,h,dc,ddl,ddr,vr,hd,vl,hu: 10% 10% 3% 9% 16% 14% 14% 11% 12%
    x264 [info]: i8c dc,h,v,p: 39% 26% 19% 16%
    x264 [info]: Weighted P-Frames: Y:3.8% UV:2.1%
    x264 [info]: ref P L0: 47.3% 10.9% 16.5% 6.6% 5.4% 3.6% 3.3% 1.8% 1.7% 1.3% 1.5% 0.1% 0.0%
    x264 [info]: ref B L0: 74.6% 10.7% 5.3% 3.0% 2.0% 1.6% 1.2% 1.0% 0.5% 0.3%
    x264 [info]: ref B L1: 94.5% 5.5%
    x264 [info]: kb/s:2667.24

    Скриншоты

    с названием

    Скачать .torrent

    Скачать торрент-файл бесплатно и на максимальной скорости!

    Как скачивать? · Что такое торрент? · Рейтинг и ограничения

    !ВНИМАНИЕ!
    Сайт не распространяет и не хранит электронные версии произведений, а занимается лишь лишь предоставлением доступа к создаваемому пользователями каталогу ссылок на торрент-файлы, которые содержат только списки хеш-сумм, убедительная просьба с жалобами обращаться напрямую к пользователю. Файлы для обмена на трекере предоставлены пользователями сайта, и администрация не несёт ответственности за их содержание. Просьба не заливать файлы, защищенные авторскими правами, а также файлы нелегального содержания!


    _________________
    [Профиль] [ЛС]
    Показать сообщения:    
    Ответить на тему

    Текущее время: Сегодня, в 16:11

    Часовой пояс: GMT + 2



    Вы не можете начинать темы
    Вы не можете отвечать на сообщения
    Вы не можете редактировать свои сообщения
    Вы не можете удалять свои сообщения
    Вы не можете голосовать в опросах
    Вы не можете прикреплять файлы к сообщениям
    Вы не можете скачивать файлы