BitTorrentTracker PerecTracker.org
BitTorrentTracker PerecTracker.org
    
Регистрация  ·  Вход
 
 · 
Забыли пароль?

  • Власть убеждений / The Power of Few (Леон Маруччи / Leone Marucci) [2013, США, боевик, триллер, драма, криминал, детектив, HDTVRip] MVO + Original (Eng) + Subs (Rus, Eng)

    Ответить на тему
     
    Автор Сообщение

    Light

    Создавать темы 17-Сен-2016 13:17

           

    [Цитировать]

    Власть убеждений / The Power of Few-Страна: США
    Жанр: боевик, триллер, драма, криминал, детектив
    Год выпуска: 2013
    Продолжительность: 01:32:01-Перевод: Профессиональный (многоголосый закадровый)
    Оригинальная аудиодорожка: есть (английская) - отдельным файлом
    Cубтитры: русские, английские-Режиссер: Леон Маруччи / Leone Marucci-В ролях: Кристофер Уокен, Кристиан Слэйтер, К’Орианка Килчер, Энтони Андерсон, Фишер Эшворт, Девон Джирхарт, Сихуару Килчер, Ларри Кинг, Мун Бладгуд, Стиггиди Стив-Описание: Через двадцать минут жизнь в маленьком городке в Новом Орлеане круто изменится. Как? Вариантов — бесчисленное множество, ведь за эти 20 минут может произойти бессчётное количество событий. Полисмены, шпионы, бродяги, криминальные авторитеты, религиозные лидеры, городские зеваки… — каждый может совершить нечто, что развернёт течение истории в другом направлении. Ведь все мы неразрывно связаны друг с другом, даже если не подозреваем об этом! Выбор самого маленького человека может повлиять на самые большие события в мире…--Сэмпл: http://multi-up.com/1118166-Качество видео: HDTVRip
    Формат видео: AVI-Видео: 688x384 (1.79:1), 25 fps, XviD build 73 ~2079 kbps avg, 0.32 bit/pixel
    Аудио 1: 48 kHz, AC3 Dolby Digital, 2/0 (L,R) ch, ~192.00 kbps avg (RUS)
    Аудио 2: 48 kHz, AC3 Dolby Digital, 3/2 (L,C,R,l,r) + LFE ch, ~448.00 kbps avg (ENG) - отдельным файлом
    Формат субтитров: srt

    Как добавить/удалить/поменять местами звуковую дорожку

    Из за ограничений контейнера AVI, часто, звуковые дорожки к фильмам идут отдельными файлами. Но смотреть их хочется именно с этими дорожками, да еще и на бытовом плеере, который отдельных дорожек не понимает. Что делать? Прикрепить желаемую дорожку к фильму!
    Многие скажут, это же сложно, нужно уметь пользоваться видеоредакторами, но это не так. Все невероятно легко!
    Для начала нужно скачать программу VirtualDub 1.5.10.2
    установили её, запускаем и видим вот такое окно:

    Жмем File, Open video file (Файл -> открыть видеофайл...). И выбираем файл с фильмом.

    Жмем Streams, stream list (Потоки -> потоки).

    Жмем Add (Добавить)

    И выбираем файл со звуковой дорожкой.
    Теперь мы можем переместить нажу дорожку наверх (чтобы она воспроизводилась по умолчанию) кнопкой Move Up (Вверх, Вниз). Или же вообще убрать не нужную нам дорожку кнопкой Disable (Отключить). После всех действий жмем OK.

    Время сохранять файл. Жмем File, Save As (Файл -> Сохранить как).

    В открывшемся окне вводим имя файла. И выставляем Direct Stream Copy (Прямопотоковое копирование) в параметре Video Mode (Видеорежим). Это очень важно, т.к. если этого не сделать видео будет подвергнуто перекодированию и потеряет в качестве. Кроме того перекодирование занимает гораздо больше времени чем простое копирование потока.

    Жмем сохранить и через несколько минут получаем фильм с нужной звуковой дорожкой.

    Отчёт MediaInfo

    Общее
    Полное имя : C:\Downloads\Власть убеждений (The Power of Few) 2013\Власть убеждений.avi
    Формат : AVI
    Формат/Информация : Audio Video Interleave
    Размер файла : 1,47 Гбайт
    Продолжительность : 1 ч. 32 м.
    Общий поток : 2282 Кбит/сек
    Программа кодирования : VirtualDubModRus 1.5.10.2 (build 2542/release)
    Библиотека кодирования : VirtualDubMod build 2542/release
    Видео
    Идентификатор : 0
    Формат : MPEG-4 Visual
    Профиль формата : Advanced Simple@L5
    Параметр BVOP формата : 1
    Параметр QPel формата : Нет
    Параметр GMC формата : Без точки перехода
    Параметр матрицы формата : Выборочная
    Идентификатор кодека : DX50
    Идентификатор кодека/Подсказка : DivX 5
    Продолжительность : 1 ч. 32 м.
    Битрейт : 2080 Кбит/сек
    Ширина : 688 пикселей
    Высота : 384 пикселя
    Соотношение сторон : 16:9
    Частота кадров : 25,000 кадров/сек
    Цветовое пространство : YUV
    Субдискретизация насыщенности : 4:2:0
    Битовая глубина : 8 бит
    Тип развёртки : Прогрессивная
    Метод сжатия : С потерями
    Бит/(Пиксели*Кадры) : 0.315
    Размер потока : 1,34 Гбайт (91%)
    Библиотека кодирования : XviD 73
    Аудио
    Идентификатор : 1
    Формат : AC-3
    Формат/Информация : Audio Coding 3
    Расширение режима : CM (complete main)
    Параметр Endianness формата : Big
    Идентификатор кодека : 2000
    Продолжительность : 1 ч. 32 м.
    Вид битрейта : Постоянный
    Битрейт : 192 Кбит/сек
    Каналы : 2 канала
    Расположение каналов : Front: L R
    Частота : 48,0 КГц
    Частота кадров : 31,250 кадров/сек (1536 spf)
    Метод сжатия : С потерями
    Размер потока : 126 Мбайт (8%)
    Выравнивание : Разделение по промежуткам
    Продолжительность промежутка : 40 мс. (1,00 видеокадр)
    Время предзагрузки промежутка : 500 мс.

    Скриншоты

    Скачать .torrent

    Скачать торрент-файл бесплатно и на максимальной скорости!

    Как скачивать? · Что такое торрент? · Рейтинг и ограничения

    !ВНИМАНИЕ!
    Сайт не распространяет и не хранит электронные версии произведений, а занимается лишь лишь предоставлением доступа к создаваемому пользователями каталогу ссылок на торрент-файлы, которые содержат только списки хеш-сумм, убедительная просьба с жалобами обращаться напрямую к пользователю. Файлы для обмена на трекере предоставлены пользователями сайта, и администрация не несёт ответственности за их содержание. Просьба не заливать файлы, защищенные авторскими правами, а также файлы нелегального содержания!


    _________________
    [Профиль] [ЛС]
    Показать сообщения:    
    Ответить на тему

    Текущее время: Сегодня, в 05:12

    Часовой пояс: GMT + 2



    Вы не можете начинать темы
    Вы не можете отвечать на сообщения
    Вы не можете редактировать свои сообщения
    Вы не можете удалять свои сообщения
    Вы не можете голосовать в опросах
    Вы не можете прикреплять файлы к сообщениям
    Вы не можете скачивать файлы