BitTorrentTracker PerecTracker.org
BitTorrentTracker PerecTracker.org
    
Регистрация  ·  Вход
 
 · 
Забыли пароль?

  • Любовь и дружба / Love & Friendship (Уит Стиллман / Whit Stillman) [2016, Ирландия, Нидерланды, Франция, США, Великобритания, Драма, мелодрама, комедия, BDRip] Dub

    Ответить на тему
     
    Автор Сообщение

    rechyn

    Создавать темы 17-Сен-2016 09:05

           

    [Цитировать]

    Любовь и дружба / Love & Friendship
    Страна: Ирландия, Нидерланды, Франция, США, Великобритания
    Жанр: Драма, мелодрама, комедия
    Год выпуска: 2016
    Продолжительность: 01:33:18
    Перевод: Профессиональный (дублированный)
    Cубтитры: нет
    Оригинальная аудиодорожка: нет-Режиссер: Уит Стиллман / Whit Stillman-В ролях: Кейт Бекинсейл, Морфидд Кларк, Том Беннетт, Дженн Мюррэй, Лохлэйнн О'Меарайн, Софи Радермахер, Хлоя Севиньи, Стивен Фрай, Джордан Уоллер, Росс Мак Махон-Описание: Прекрасная молодая вдова леди Сьюзан приезжает в имение семьи покойного мужа переждать, пока в высшем обществе перестанут судачить о ее похождениях, и придумать, как поправить свое финансовое положение. Не теряя времени даром, она решает подыскать богатого мужа себе и своей юной дочери. В ход идут не только красота и обаяние, но и острый насмешливый ум и невероятный талант плести интриги.--Качество видео: BDRip | Love & Friendship (2016) Blu-ray Disc -BLUEBIRD
    Формат видео: AVI
    Видео: 688x368 (1.87:1), 23.976 fps, XviD build 73 ~977 kbps avg, 0.16 bit/pixel
    Аудио: 48 kHz, MPEG Layer 3, 2 ch, ~128.00 kbps avg-
    • Скачать сэмпл-

    MediaInfo

    Формат                                   : AVI
    Формат/Информация                        : Audio Video Interleave
    Размер файла                             : 744 Мбайт
    Продолжительность                        : 1 ч. 33 м.
    Общий поток                              : 1115 Кбит/сек
    Программа кодирования                    : VirtualDubMod 1.5.10.3 | www.virtualdub-fr.org || (build 2550/release)
    Библиотека кодирования                   : VirtualDubMod build 2550/release
    Видео
    Идентификатор                            : 0
    Формат                                   : MPEG-4 Visual
    Профиль формата                          : Advanced Simple@L5
    Параметр BVOP формата                    : 1
    Параметр QPel формата                    : Нет
    Параметр GMC формата                     : Без точки перехода
    Параметр матрицы формата                 : Выборочная
    Идентификатор кодека                     : XVID
    Идентификатор кодека/Подсказка           : XviD
    Продолжительность                        : 1 ч. 33 м.
    Битрейт                                  : 978 Кбит/сек
    Ширина                                   : 688 пикселей
    Высота                                   : 368 пикселей
    Соотношение сторон                       : 1,85:1
    Частота кадров                           : 23,976 (23976/1000) кадра/сек
    Цветовое пространство                    : YUV
    Субдискретизация насыщенности            : 4:2:0
    Битовая глубина                          : 8 бит
    Тип развёртки                            : Прогрессивная
    Метод сжатия                             : С потерями
    Бит/(Пиксели*Кадры)                      : 0.161
    Размер потока                            : 653 Мбайт (88%)
    Библиотека кодирования                   : XviD 73
    Аудио
    Идентификатор                            : 1
    Формат                                   : MPEG Audio
    Версия формата                           : Version 1
    Профиль формата                          : Layer 3
    Идентификатор кодека                     : 55
    Идентификатор кодека/Подсказка           : MP3
    Продолжительность                        : 1 ч. 33 м.
    Вид битрейта                             : Постоянный
    Битрейт                                  : 128 Кбит/сек
    Каналы                                   : 2 канала
    Частота                                  : 48,0 КГц
    Метод сжатия                             : С потерями
    Размер потока                            : 85,4 Мбайт (11%)
    Выравнивание                             : Соединение по промежуткам
    Продолжительность промежутка             : 42  мс. (1,00 видеокадр)
    Время предзагрузки промежутка            : 504  мс.
    Библиотека кодирования                   : LAME3.99r
    Настройки программы                      : -m s -V 4 -q 2 -lowpass 17 -b 128

    Скриншоты

    Скачать .torrent

    Скачать торрент-файл бесплатно и на максимальной скорости!

    Как скачивать? · Что такое торрент? · Рейтинг и ограничения

    !ВНИМАНИЕ!
    Сайт не распространяет и не хранит электронные версии произведений, а занимается лишь лишь предоставлением доступа к создаваемому пользователями каталогу ссылок на торрент-файлы, которые содержат только списки хеш-сумм, убедительная просьба с жалобами обращаться напрямую к пользователю. Файлы для обмена на трекере предоставлены пользователями сайта, и администрация не несёт ответственности за их содержание. Просьба не заливать файлы, защищенные авторскими правами, а также файлы нелегального содержания!


    _________________
    [Профиль] [ЛС]
    Показать сообщения:    
    Ответить на тему

    Текущее время: Сегодня, в 22:26

    Часовой пояс: GMT + 2



    Вы не можете начинать темы
    Вы не можете отвечать на сообщения
    Вы не можете редактировать свои сообщения
    Вы не можете удалять свои сообщения
    Вы не можете голосовать в опросах
    Вы не можете прикреплять файлы к сообщениям
    Вы не можете скачивать файлы