BitTorrentTracker PerecTracker.org
BitTorrentTracker PerecTracker.org
    
Регистрация  ·  Вход
 
 · 
Забыли пароль?

  • Бриджит Джонс 3 / Bridget Jones's Baby (2016) CAMRip | D

    Ответить на тему
     
    Автор Сообщение

    BOSS

    Создавать темы 17-Сен-2016 07:16

           

    [Цитировать]

    Бриджит Джонс 3 / Bridget Jones's Baby
    Страна: Ирландия Великобритания Франция США
    Производство: Universal Pictures, Miramax Films, Studio Canal, Working Title Films
    Год выпуска: 2016
    Жанр: мелодрама, комедия
    Продолжительность: 01:54:18
    Режиссер: Шэрон Магуайр
    Авторы сценария: Хелен Филдинг, Дэн Мазер, Эмма Томпсон
    В ролях: Рене Зеллвегер, Колин Фёрт, Патрик Демпси, Джемма Джонс, Джим Бродбент, Сэлли Филлипс, Джулиан Райнд-Татт, Ширли Хендерсон
    Описание: Казалось бы, и карьера — в гору, и квартира — в центре Лондона, но она не была бы Бриджит Джонс, если бы не её способность оказываться не в то время, не в том месте, не с тем мужчиной. И теперь она понятия не имеет, кто отец её будущего ребенка: обаятельный миллиардер или известный адвокат. Одним словом, Бриджит Джонс в очень интересном положении...

    Перевод: Профессиональный (полное дублирование)
    Субтитры: нет-Качество: CAMRip
    Формат: АVI
    Видео кодек: XviD
    Аудио кодек: АС3
    Видео: 720x304 (2.35:1), 29.970 fps, XviD ~1 552 kbps avg
    Аудио: 48 kHz, AC3 Dolby Digital, 2/0 (L,R) ch, ~192 kbps
    Дата премьеры (мир): 14 сентября 2016
    Дата премьеры (РФ): 15 сентября 2016, «UPI»

    Media Info

    General
    Complete name : BriDJet.2O16.D.CAMRip.14OOMB.avi
    Format : AVI
    Format/Info : Audio Video Interleave
    File size : 1.46 GiB
    Duration : 1h 54mn
    Overall bit rate : 1 826 Kbps
    Writing application : VirtualDubMod 1.5.10.2 (build 2540/release)
    Writing library : VirtualDubMod build 2540/release
    Video
    ID : 0
    Format : MPEG-4 Visual
    Format profile : Advanced Simple@L5
    Format settings, BVOP : 2
    Format settings, QPel : No
    Format settings, GMC : No warppoints
    Format settings, Matrix : Custom
    Codec ID : XVID
    Codec ID/Hint : XviD
    Duration : 1h 54mn
    Bit rate : 1 552 Kbps
    Width : 720 pixels
    Height : 304 pixels
    Display aspect ratio : 2.35:1
    Frame rate : 29.970 fps
    Color space : YUV
    Chroma subsampling : 4:2:0
    Bit depth : 8 bits
    Scan type : Progressive
    Compression mode : Lossy
    Bits/(Pixel*Frame) : 0.237
    Stream size : 1.24 GiB (85%)
    Writing library : XviD 1.2.1 (UTC 2008-12-04)
    Audio
    ID : 1
    Format : AC-3
    Format/Info : Audio Coding 3
    Mode extension : CM (complete main)
    Format settings, Endianness : Big
    Codec ID : 2000
    Duration : 1h 54mn
    Bit rate mode : Constant
    Bit rate : 192 Kbps
    Channel(s) : 2 channels
    Channel positions : Front: L R
    Sampling rate : 48.0 KHz
    Bit depth : 16 bits
    Compression mode : Lossy
    Stream size : 157 MiB (11%)
    Alignment : Split accross interleaves

    Скриншоты

    Скачать .torrent

    Скачать торрент-файл бесплатно и на максимальной скорости!

    Как скачивать? · Что такое торрент? · Рейтинг и ограничения

    !ВНИМАНИЕ!
    Сайт не распространяет и не хранит электронные версии произведений, а занимается лишь лишь предоставлением доступа к создаваемому пользователями каталогу ссылок на торрент-файлы, которые содержат только списки хеш-сумм, убедительная просьба с жалобами обращаться напрямую к пользователю. Файлы для обмена на трекере предоставлены пользователями сайта, и администрация не несёт ответственности за их содержание. Просьба не заливать файлы, защищенные авторскими правами, а также файлы нелегального содержания!

    [Профиль] [ЛС]
    Показать сообщения:    
    Ответить на тему

    Текущее время: Сегодня, в 02:31

    Часовой пояс: GMT + 2



    Вы не можете начинать темы
    Вы не можете отвечать на сообщения
    Вы не можете редактировать свои сообщения
    Вы не можете удалять свои сообщения
    Вы не можете голосовать в опросах
    Вы не можете прикреплять файлы к сообщениям
    Вы не можете скачивать файлы