BitTorrentTracker PerecTracker.org
BitTorrentTracker PerecTracker.org
    
Регистрация  ·  Вход
 
 · 
Забыли пароль?

  • [ATV3] Свадебный угар / Mike and Dave Need Wedding Dates (Джейк Зиманский / Jake Szymanski ) [2016, США, Мелодрама, комедия, приключения, WEB-DL, HD (1080p)] DUB + Original + sub (rus, eng)

    Ответить на тему
     
    Автор Сообщение

    rechyn

    Создавать темы 17-Сен-2016 04:53

           

    [Цитировать]

    Свадебный угар / Mike and Dave Need Wedding Dates
    «They needed hot dates. They got hot messes»
    5.903 / 10 6.40 / 10
    -Год выпуска: 2016
    Страна: США
    Жанр: Мелодрама, комедия, приключения
    Продолжительность: 01:38:49
    Перевод: Дублированный (iTunes)
    Оригинальная аудиодорожка: Есть
    Cубтитры: Русские форсированные, Английские форсированные, Русские, Английские
    Режиссёр: Джейк Зиманский
    Сценарий: Эндрю Дж. Коэн, Брендан О’Брайэн
    Продюсер: Питер Чернин, Эндрю Дж. Коэн, Джонатан Левин
    Оператор: Мэттью Кларк
    Композитор: Джефф Кардони
    Художник: Тайлер Б. Робинсон, Марк Гарнер, Калеб Миклер
    Монтаж: Ли Хэксалл, Джонатан Шварц
    В ролях: Зак Эфрон, Адам Дивайн, Анна Кендрик, Обри Плаза, Стивен Рут, Стефани Фэраси, Стефани Бирд, Сэм Ричардсон, Элис Веттерлунд, Лавелл Кроуфорд
    Бюджет: $33 000 000
    Сборы в США: $45 944 993
    Сборы в мире: + $28 081 622 = $74 026 615
    Сборы в России: $1 636 011
    Мировая премьера: 7 июля 2016
    Премьера (РФ): 7 июля 2016, «Двадцатый Век Фокс СНГ»
    Описание: Братья-тусовщики Майк и Дэйв дают в интернете объявление о поиске пар, чтобы отправиться на свадьбу сестры на Гавайях. Они надеются на дикий отрыв, но выбранный ими дуэт девушек оказывается совершенно неконтролируемым, готовым превратить праздник в настоящий ад.-Качество исходника: WEB-DL 1080p (BlueBird)
    Качество: WEB-DL
    Тип: HD (1080p)
    Контейнер: M4V
    Видео: H.264, 1914x800, 2.40:1, 4 547 Kbps, 23.976 fps
    Аудио 1: Русский/Дублированный (iTunes), AAC / 2.0 / 160 Kbps / 48.0 KHz
    Аудио 2: Английский/Оригинальная дорожка , AAC / 2.0 / 160 Kbps / 48.0 KHz
    Аудио 3: Русский/Дублированный (iTunes), AC-3 / 5.1 / 384 Kbps / 48.0 KHz
    Аудио 4: Английский/Оригинальная дорожка , AC-3 / 5.1 / 384 Kbps / 48.0 KHz
    Субтитры 1: Русские форсированные
    Субтитры 2: Английские форсированные
    Субтитры 3: Русские полные
    Субтитры 4: Английские полные
    -

    iTunes Meta Tags

    Sort Name: Mike and Dave Need Wedding Dates
    XID: Apple:vendor_id:2016-756092
    contentID: 1125620138
    Copyright: © 2016 Twentieth Century Fox Film Corporation. All rights reserved.
    Screenwriters: Эндрю Дж. Коэн, Брендан О’Брайэн
    Producers: Питер Чернин, Эндрю Дж. Коэн, Джонатан Левин
    Director: Джейк Зиманский
    Cast: Зак Эфрон, Адам Дивайн, Анна Кендрик, Обри Плаза, Стивен Рут, Стефани Фэраси, Стефани Бирд, Сэм Ричардсон, Элис Веттерлунд, Лавелл Кроуфорд, Даниил Эльдаров, Данил Щебланов, Мария Иващенко, Евгения Ваган, Александр Новиков
    Studio: 20th Century Fox
    Rating: 5
    Long Description: Братья-тусовщики Майк и Дэйв дают в интернете объявление о поиске пар, чтобы отправиться на свадьбу сестры на Гавайях. Они надеются на дикий отрыв, но выбранный ими дуэт девушек оказывается совершенно неконтролируемым, готовым превратить праздник в настоящий ад.
    Description: Братья-тусовщики Майк и Дэйв дают в интернете объявление о поиске пар, чтобы отправиться на свадьбу сестры на Гавайях. Они надеются на дикий отрыв, но выбранный ими дуэт девушек оказывается совершенно неконтролируемым, готовым превратить праздник в настоящий ад.
    Release Date: 2016-07-07T08:00:00Z
    Genre: Comedy
    Artist: Jake Szymanski
    Name: Mike and Dave Need Wedding Dates

    MediaInfo

    General
    Complete name                            : /Users/imac/HandBrake/Svadebnyi.Ugar.WEB-DL.1080p.m4v
    Format                                   : MPEG-4
    Codec ID                                 : M4V  (M4V /M4A /mp42/isom)
    File size                                : 3.89 GiB
    Duration                                 : 1h 38mn
    Overall bit rate mode                    : Variable
    Overall bit rate                         : 5 635 Kbps
    Movie name                               : Mike and Dave Need Wedding Dates
    Performer                                : Jake Szymanski
    Director                                 : Джейк Зиманский
    Actor                                    : Зак Эфрон / Адам Дивайн / Анна Кендрик / Обри Плаза / Стивен Рут / Стефани Фэраси / Стефани Бирд / Сэм Ричардсон / Элис Веттерлунд / Лавелл Кроуфорд / Даниил Эльдаров / Данил Щебланов / Мария Иващенко / Евгения Ваган / Александр Новиков
    Screenplay by                            : Эндрю Дж. Коэн / Брендан О’Брайэн
    Producer                                 : Питер Чернин / Эндрю Дж. Коэн / Джонатан Левин
    Production studio                        : 20th Century Fox
    Genre                                    : Comedy
    ContentType                              : Short Film
    Description                              : Братья-тусовщики Майк и Дэйв дают в интернете объявление о поиске пар, чтобы отправиться на свадьбу сестры на Гавайях. Они надеются на дикий отрыв, но выбранный ими дуэт девушек оказывается совершенно неконтролируемым, готовым превратить праздник в настоящий ад.
    Recorded date                            : UTC 2016-07-07 08:00:00
    Encoded date                             : UTC 2016-09-16 23:19:27
    Tagged date                              : UTC 2016-09-16 23:34:44
    Copyright                                : © 2016 Twentieth Century Fox Film Corporation. All rights reserved.
    Cover                                    : Yes
    Rating                                   : None
    Title/Sort                               : Mike and Dave Need Wedding Dates
    LongDescription                          : Братья-тусовщики Майк и Дэйв дают в интернете объявление о поиске пар, чтобы отправиться на свадьбу сестры на Гавайях. Они надеются на дикий отрыв, но выбранный ими дуэт девушек оказывается совершенно неконтролируемым, готовым превратить праздник в настоящий ад.
    AppleStoreCatalogID                      : 1125620138
    Vendor                                   : Apple:vendor_id:2016-756092
    ContentRating                            : mpaa|R|400|
    Video #1
    ID                                       : 1
    Format                                   : AVC
    Format/Info                              : Advanced Video Codec
    Format profile                           : High@L4
    Format settings, CABAC                   : Yes
    Format settings, ReFrames                : 5 frames
    Codec ID                                 : avc1
    Codec ID/Info                            : Advanced Video Coding
    Duration                                 : 1h 38mn
    Bit rate                                 : 4 547 Kbps
    Width                                    : 1 914 pixels
    Height                                   : 800 pixels
    Display aspect ratio                     : 2.40:1
    Frame rate mode                          : Variable
    Frame rate                               : 23.976 fps
    Minimum frame rate                       : 22.727 fps
    Maximum frame rate                       : 25.000 fps
    Color space                              : YUV
    Chroma subsampling                       : 4:2:0
    Bit depth                                : 8 bits
    Scan type                                : Progressive
    Bits/(Pixel*Frame)                       : 0.124
    Stream size                              : 3.14 GiB (81%)
    Title                                    : Main Program
    Language                                 : English
    Encoded date                             : UTC 2016-09-16 23:19:27
    Tagged date                              : UTC 2016-09-16 23:19:34
    Color range                              : Limited
    Color primaries                          : BT.709
    Transfer characteristics                 : BT.709
    Matrix coefficients                      : BT.709
    Menus                                    : 10,11
    Video #2
    ID                                       : 11
    Format                                   : JPEG
    Codec ID                                 : jpeg
    Duration                                 : 1h 38mn
    Bit rate mode                            : Variable
    Bit rate                                 : 1 388 bps
    Width                                    : 640 pixels
    Height                                   : 267 pixels
    Display aspect ratio                     : 2.40:1
    Frame rate mode                          : Variable
    Frame rate                               : 0.004 fps
    Minimum frame rate                       : 0.003 fps
    Maximum frame rate                       : 0.006 fps
    Color space                              : YUV
    Chroma subsampling                       : 4:2:0
    Bit depth                                : 8 bits
    Compression mode                         : Lossy
    Bits/(Pixel*Frame)                       : 2.031
    Stream size                              : 1 017 KiB (0%)
    Title                                    : Chapter Images
    Language                                 : English
    Default                                  : No
    Encoded date                             : UTC 2016-09-16 23:19:59
    Tagged date                              : UTC 2016-09-16 23:19:59
    Menu For                                 : 1
    Audio #1
    ID                                       : 2
    Format                                   : AAC
    Format/Info                              : Advanced Audio Codec
    Format profile                           : LC
    Codec ID                                 : 40
    Duration                                 : 1h 38mn
    Bit rate mode                            : Variable
    Bit rate                                 : 156 Kbps
    Maximum bit rate                         : 247 Kbps
    Channel(s)                               : 2 channels
    Channel positions                        : Front: L R
    Sampling rate                            : 48.0 KHz
    Frame rate                               : 46.875 fps (1024 spf)
    Compression mode                         : Lossy
    Stream size                              : 110 MiB (3%)
    Title                                    : Russian Stereo
    Language                                 : Russian
    Default                                  : Yes
    Alternate group                          : 1
    Encoded date                             : UTC 2016-09-16 23:19:27
    Tagged date                              : UTC 2016-09-16 23:19:36
    Fallback From                            : 4
    Subtitles                                : 6,8
    Audio #2
    ID                                       : 3
    Format                                   : AAC
    Format/Info                              : Advanced Audio Codec
    Format profile                           : LC
    Codec ID                                 : 40
    Duration                                 : 1h 38mn
    Bit rate mode                            : Variable
    Bit rate                                 : 155 Kbps
    Maximum bit rate                         : 268 Kbps
    Channel(s)                               : 2 channels
    Channel positions                        : Front: L R
    Sampling rate                            : 48.0 KHz
    Frame rate                               : 46.875 fps (1024 spf)
    Compression mode                         : Lossy
    Stream size                              : 109 MiB (3%)
    Title                                    : English Stereo
    Language                                 : English
    Default                                  : No
    Alternate group                          : 1
    Encoded date                             : UTC 2016-09-16 23:19:27
    Tagged date                              : UTC 2016-09-16 23:19:36
    Fallback From                            : 5
    Subtitles                                : 7,9
    Audio #3
    ID                                       : 4
    Format                                   : AC-3
    Format/Info                              : Audio Coding 3
    Mode extension                           : CM (complete main)
    Format settings, Endianness              : Big
    Codec ID                                 : ac-3
    Duration                                 : 1h 38mn
    Bit rate mode                            : Constant
    Bit rate                                 : 384 Kbps
    Channel(s)                               : 6 channels
    Channel positions                        : Front: L C R, Side: L R, LFE
    Sampling rate                            : 48.0 KHz
    Frame rate                               : 31.250 fps (1536 spf)
    Bit depth                                : 16 bits
    Compression mode                         : Lossy
    Stream size                              : 271 MiB (7%)
    Title                                    : Russian DD 5.1
    Language                                 : Russian
    Default                                  : Inherited From: 2
    Alternate group                          : 1
    Encoded date                             : UTC 2016-09-16 23:19:27
    Tagged date                              : UTC 2016-09-16 23:19:34
    Fallback To                              : 2
    Subtitles                                : 6,8
    Audio #4
    ID                                       : 5
    Format                                   : AC-3
    Format/Info                              : Audio Coding 3
    Mode extension                           : CM (complete main)
    Format settings, Endianness              : Big
    Codec ID                                 : ac-3
    Duration                                 : 1h 38mn
    Bit rate mode                            : Constant
    Bit rate                                 : 384 Kbps
    Channel(s)                               : 6 channels
    Channel positions                        : Front: L C R, Side: L R, LFE
    Sampling rate                            : 48.0 KHz
    Frame rate                               : 31.250 fps (1536 spf)
    Bit depth                                : 16 bits
    Compression mode                         : Lossy
    Stream size                              : 271 MiB (7%)
    Title                                    : English DD 5.1
    Language                                 : English
    Default                                  : No
    Alternate group                          : 1
    Encoded date                             : UTC 2016-09-16 23:19:27
    Tagged date                              : UTC 2016-09-16 23:19:34
    Fallback To                              : 3
    Subtitles                                : 7,9
    Text #1
    ID                                       : 6
    Format                                   : Timed Text
    Muxing mode                              : sbtl
    Codec ID                                 : tx3g
    Duration                                 : 1h 34mn
    Bit rate mode                            : Variable
    Bit rate                                 : 1 bps
    Stream size                              : 795 Bytes (0%)
    Title                                    : Russian Forced
    Language                                 : Russian
    Default                                  : Yes
    Forced                                   : Yes
    Alternate group                          : 2
    Encoded date                             : UTC 2016-09-16 23:19:27
    Tagged date                              : UTC 2016-09-16 23:19:51
    Subtitles For                            : 2,4
    Full Alternative                         : 8
    Text #2
    ID                                       : 7
    Format                                   : Timed Text
    Muxing mode                              : sbtl
    Codec ID                                 : tx3g
    Duration                                 : 1h 34mn
    Bit rate mode                            : Variable
    Bit rate                                 : 0 bps
    Stream size                              : 64.0 Bytes (0%)
    Title                                    : English Forced
    Language                                 : English
    Default                                  : No
    Forced                                   : Yes
    Alternate group                          : 2
    Encoded date                             : UTC 2016-09-16 23:19:27
    Tagged date                              : UTC 2016-09-16 23:19:51
    Subtitles For                            : 3,5
    Full Alternative                         : 9
    Text #3
    ID                                       : 8
    Format                                   : Timed Text
    Muxing mode                              : sbtl
    Codec ID                                 : tx3g
    Duration                                 : 1h 38mn
    Bit rate mode                            : Variable
    Bit rate                                 : 163 bps
    Stream size                              : 117 KiB (0%)
    Title                                    : Russian Full
    Language                                 : Russian
    Default                                  : No
    Forced                                   : No
    Alternate group                          : 2
    Encoded date                             : UTC 2016-09-16 23:19:27
    Tagged date                              : UTC 2016-09-16 23:19:51
    Subtitles For                            : 2,4
    Forced Alternative                       : 6
    Text #4
    ID                                       : 9
    Format                                   : Timed Text
    Muxing mode                              : sbtl
    Codec ID                                 : tx3g
    Duration                                 : 1h 38mn
    Bit rate mode                            : Variable
    Bit rate                                 : 112 bps
    Stream size                              : 80.4 KiB (0%)
    Title                                    : English Full
    Language                                 : English
    Default                                  : No
    Forced                                   : No
    Alternate group                          : 2
    Encoded date                             : UTC 2016-09-16 23:19:27
    Tagged date                              : UTC 2016-09-16 23:19:51
    Subtitles For                            : 3,5
    Forced Alternative                       : 7
    Menu #1
    00:00:00.000                             : 1
    00:03:38.510                             : 2
    00:08:11.824                             : 3
    00:11:25.100                             : 4
    00:17:28.338                             : 5
    00:22:32.475                             : 6
    00:27:21.430                             : 7
    00:31:28.176                             : 8
    00:35:22.201                             : 9
    00:38:16.208                             : 10
    00:41:25.438                             : 11
    00:44:24.533                             : 12
    00:50:21.806                             : 13
    00:54:11.827                             : 14
    00:56:52.654                             : 15
    01:01:15.124                             : 16
    01:04:43.207                             : 17
    01:08:23.051                             : 18
    01:12:27.879                             : 19
    01:16:32.331                             : 20
    01:21:07.606                             : 21
    01:25:29.534                             : 22
    01:28:44.979                             : 23
    01:33:50.075                             : 24
    Menu #2
    ID                                       : 10
    Codec ID                                 : text
    Duration                                 : 1h 38mn
    Language                                 : English
    Encoded date                             : UTC 2016-09-16 23:19:51
    Tagged date                              : UTC 2016-09-16 23:19:51
    Menu For                                 : 1
    00:00:00.000                             : 1
    00:03:38.510                             : 2
    00:08:11.824                             : 3
    00:11:25.100                             : 4
    00:17:28.338                             : 5
    00:22:32.475                             : 6
    00:27:21.430                             : 7
    00:31:28.176                             : 8
    00:35:22.201                             : 9
    00:38:16.208                             : 10
    00:41:25.438                             : 11
    00:44:24.533                             : 12
    00:50:21.806                             : 13
    00:54:11.827                             : 14
    00:56:52.654                             : 15
    01:01:15.124                             : 16
    01:04:43.207                             : 17
    01:08:23.051                             : 18
    01:12:27.879                             : 19
    01:16:32.331                             : 20
    01:21:07.606                             : 21
    01:25:29.534                             : 22
    01:28:44.979                             : 23
    01:33:50.075                             : 24
    Bit rate mode                            : VBR

    Скриншоты


    -

    Релиз подготовлен для просмотра на Apple TV, iPad, iPhone, iPod Touch.
    Для просмотра данного релиза на компьютере с ОС Windows рекомендуется использовать VLC media player
    Скачать .torrent

    Скачать торрент-файл бесплатно и на максимальной скорости!

    Как скачивать? · Что такое торрент? · Рейтинг и ограничения

    !ВНИМАНИЕ!
    Сайт не распространяет и не хранит электронные версии произведений, а занимается лишь лишь предоставлением доступа к создаваемому пользователями каталогу ссылок на торрент-файлы, которые содержат только списки хеш-сумм, убедительная просьба с жалобами обращаться напрямую к пользователю. Файлы для обмена на трекере предоставлены пользователями сайта, и администрация не несёт ответственности за их содержание. Просьба не заливать файлы, защищенные авторскими правами, а также файлы нелегального содержания!


    _________________
    [Профиль] [ЛС]
    Показать сообщения:    
    Ответить на тему

    Текущее время: Сегодня, в 18:53

    Часовой пояс: GMT + 2



    Вы не можете начинать темы
    Вы не можете отвечать на сообщения
    Вы не можете редактировать свои сообщения
    Вы не можете удалять свои сообщения
    Вы не можете голосовать в опросах
    Вы не можете прикреплять файлы к сообщениям
    Вы не можете скачивать файлы