BitTorrentTracker PerecTracker.org
BitTorrentTracker PerecTracker.org
    
Регистрация  ·  Вход
 
 · 
Забыли пароль?

  • Трудная мишень 2 / Hard Target 2 (Роэль Рейн / Roel Reiné) [2016, США, боевик, триллер, BDRip 720p] Dub + Sub Rus, Eng + Original Eng

    Ответить на тему
     
    Автор Сообщение

    Light

    Создавать темы 16-Сен-2016 20:31

           

    [Цитировать]

    Трудная мишень 2 / Hard Target 2
    Страна: США
    Жанр: боевик, триллер
    Год выпуска: 2016
    Продолжительность: 01:43:33
    Перевод: Профессиональный (дублированный)
    Cубтитры: Russian, English (x3), Chinese, Czech, Danish, Dutch, French, German, Greek, Hindi, Hungarian, Korean, Polish, Portuguese, Romanian, Spanish, Turkish, Chinese
    Оригинальная аудиодорожка: английский-Режиссер: Роэль Рейн / Roel Reiné-В ролях: Скотт Эдкинс, Роберт Неппер, Рона Митра, Темуэра Моррисон, Ann Truong, Адам Саундерс, Джэйми Тимони, Питер Харди, Шон Кинэн, Troy Honeysett-Описание: Продолжение культового экшн-триллера 1993 года о подпольных игрищах, где проплаченные «охотники» травят, как дичь, похищенных людей. Новой мишенью становится опальный мастер боевых искусств, который соблазнился деньгами, даже не подозревая, на что подписывается. Но и его преследователи еще не знают, с кем связались.-Релиз от:
    | Рип от VietHD-Качество видео: BDRip
    Формат видео: MKV
    Видео: 1280x720 at 23.976 fps, x264@L4.1, crf, ~7000 kbps avg
    Аудио : Dolby Digital Audio Russian 448 kbps 5.1 / 48 kHz / 448 kbps / DN -4dB
    Аудио : English: 48 kHz, DTS, 3/2 (L,C,R,l,r) + LFE ch, ~1510.00 kbps avg-
    Сохранены оригинальные главы как на Blu-ray.

    MI

    Format                      : Matroska
    Format version              : Version 4 / Version 2
    File size                   : 6.58 GiB
    Duration                    : 1 h 43 min
    Overall bit rate            : 9 103 kb/s
    Movie name                  : Hard Target 2  (2016) - Release for HDCLUB
    Encoded date                : UTC 2016-08-29 17:17:39
    Writing application         : mkvmerge v8.1.0 ('Psychedelic Postcard') 32bit
    Writing library             : libebml v1.3.1 + libmatroska v1.4.2
    Video
    ID                          : 1
    Format                      : AVC
    Format/Info                 : Advanced Video Codec
    Format profile              : High@L4.1
    Format settings, CABAC      : Yes
    Format settings, ReFrames   : 9 frames
    Codec ID                    : V_MPEG4/ISO/AVC
    Duration                    : 1 h 43 min
    Bit rate                    : 7 142 kb/s
    Width                       : 1 280 pixels
    Height                      : 720 pixels
    Display aspect ratio        : 16:9
    Frame rate mode             : Constant
    Frame rate                  : 23.976 (24000/1001) FPS
    Color space                 : YUV
    Chroma subsampling          : 4:2:0
    Bit depth                   : 8 bits
    Scan type                   : Progressive
    Bits/(Pixel*Frame)          : 0.323
    Stream size                 : 5.17 GiB (78%)
    Writing library             : x264 core 148 r2705.16 d50a22e VietHD_Custom_64
    Encoding settings           : cabac=1 / ref=9 / deblock=1:-3:-3 / analyse=0x3:0x133 / me=umh / subme=10 / psy=1 / fade_compensate=0.00 / psy_rd=1.03:0.00 / mixed_ref=1 / me_range=24 / chroma_me=1 / trellis=2 / 8x8dct=1 / cqm=0 / deadzone=21,11 / fast_pskip=0 / chroma_qp_offset=-2 / threads=12 / lookahead_threads=2 / sliced_threads=0 / nr=0 / decimate=0 / interlaced=0 / bluray_compat=0 / constrained_intra=0 / fgo=0 / bframes=7 / b_pyramid=2 / b_adapt=2 / b_bias=0 / direct=3 / weightb=1 / open_gop=0 / weightp=2 / keyint=250 / keyint_min=23 / scenecut=40 / intra_refresh=0 / rc_lookahead=60 / rc=crf / mbtree=0 / crf=17.5000 / qcomp=0.65 / qpmin=0:0:0 / qpmax=69:69:69 / qpstep=4 / vbv_maxrate=62500 / vbv_bufsize=78125 / crf_max=0.0 / nal_hrd=none / filler=0 / ip_ratio=1.30 / pb_ratio=1.20 / aq=3:0.82 / aq-sensitivity=10.00 / aq-factor=1.00:1.00:1.00 / aq2=0 / aq3=0 / zones=0,447,crf=15/797,16047,crf=17/16332,27416,crf=17/69160,70389,crf=17/83042,93242,crf=17/121483,122088,crf=17/123337,125870,crf=17/134518,135176,crf=17
    Language                    : English
    Default                     : Yes
    Forced                      : No
    Color range                 : Limited
    Matrix coefficients         : BT.709
    Audio #1
    ID                          : 2
    Format                      : AC-3
    Format/Info                 : Audio Coding 3
    Mode extension              : CM (complete main)
    Format settings, Endianness : Big
    Codec ID                    : A_AC3
    Duration                    : 1 h 43 min
    Bit rate mode               : Constant
    Bit rate                    : 448 kb/s
    Channel(s)                  : 6 channels
    Channel positions           : Front: L C R, Side: L R, LFE
    Sampling rate               : 48.0 kHz
    Frame rate                  : 31.250 FPS (1536 spf)
    Compression mode            : Lossy
    Stream size                 : 332 MiB (5%)
    Title                       : Blu-ray CEE
    Language                    : Russian
    Default                     : Yes
    Forced                      : No
    Audio #2
    ID                          : 3
    Format                      : DTS
    Format/Info                 : Digital Theater Systems
    Mode                        : 16
    Format settings, Endianness : Big
    Codec ID                    : A_DTS
    Duration                    : 1 h 43 min
    Bit rate mode               : Constant
    Bit rate                    : 1 509 kb/s
    Channel(s)                  : 6 channels
    Channel positions           : Front: L C R, Side: L R, LFE
    Sampling rate               : 48.0 kHz
    Frame rate                  : 93.750 FPS (512 spf)
    Bit depth                   : 24 bits
    Compression mode            : Lossy
    Stream size                 : 1.09 GiB (17%)
    Language                    : English
    Default                     : No
    Forced                      : No
    Text #1
    ID                          : 4
    Format                      : UTF-8
    Codec ID                    : S_TEXT/UTF8
    Codec ID/Info               : UTF-8 Plain Text
    Duration                    : 1 h 42 min
    Bit rate                    : 56 b/s
    Count of elements           : 838
    Stream size                 : 42.4 KiB (0%)
    Title                       : Russian
    Language                    : Russian
    Default                     : No
    Forced                      : No
    Text #2
    ID                          : 5
    Format                      : UTF-8
    Codec ID                    : S_TEXT/UTF8
    Codec ID/Info               : UTF-8 Plain Text
    Duration                    : 1 h 39 min
    Bit rate                    : 34 b/s
    Count of elements           : 873
    Stream size                 : 25.3 KiB (0%)
    Title                       : English
    Language                    : English
    Default                     : No
    Forced                      : No
    Text #3
    ID                          : 6
    Format                      : UTF-8
    Codec ID                    : S_TEXT/UTF8
    Codec ID/Info               : UTF-8 Plain Text
    Duration                    : 1 h 43 min
    Bit rate                    : 118 b/s
    Count of elements           : 1680
    Stream size                 : 89.8 KiB (0%)
    Title                       : English
    Language                    : English
    Default                     : No
    Forced                      : No
    Text #4
    ID                          : 7
    Format                      : UTF-8
    Codec ID                    : S_TEXT/UTF8
    Codec ID/Info               : UTF-8 Plain Text
    Duration                    : 1 h 41 min
    Bit rate                    : 38 b/s
    Count of elements           : 1055
    Stream size                 : 28.9 KiB (0%)
    Title                       : English
    Language                    : English
    Default                     : No
    Forced                      : No
    Text #5
    ID                          : 8
    Format                      : UTF-8
    Codec ID                    : S_TEXT/UTF8
    Codec ID/Info               : UTF-8 Plain Text
    Duration                    : 1 h 39 min
    Bit rate                    : 36 b/s
    Count of elements           : 830
    Stream size                 : 26.3 KiB (0%)
    Title                       : Chinese
    Language                    : Chinese
    Default                     : No
    Forced                      : No
    Text #6
    ID                          : 9
    Format                      : UTF-8
    Codec ID                    : S_TEXT/UTF8
    Codec ID/Info               : UTF-8 Plain Text
    Duration                    : 1 h 42 min
    Bit rate                    : 33 b/s
    Count of elements           : 837
    Stream size                 : 25.3 KiB (0%)
    Title                       : Czech
    Language                    : Czech
    Default                     : No
    Forced                      : No
    Text #7
    ID                          : 10
    Format                      : UTF-8
    Codec ID                    : S_TEXT/UTF8
    Codec ID/Info               : UTF-8 Plain Text
    Duration                    : 1 h 39 min
    Bit rate                    : 33 b/s
    Count of elements           : 830
    Stream size                 : 24.5 KiB (0%)
    Title                       : Danish
    Language                    : Danish
    Default                     : No
    Forced                      : No
    Text #8
    ID                          : 11
    Format                      : UTF-8
    Codec ID                    : S_TEXT/UTF8
    Codec ID/Info               : UTF-8 Plain Text
    Duration                    : 1 h 39 min
    Bit rate                    : 33 b/s
    Count of elements           : 830
    Stream size                 : 24.4 KiB (0%)
    Title                       : Dutch
    Language                    : Dutch
    Default                     : No
    Forced                      : No
    Text #9
    ID                          : 12
    Format                      : UTF-8
    Codec ID                    : S_TEXT/UTF8
    Codec ID/Info               : UTF-8 Plain Text
    Duration                    : 1 h 42 min
    Bit rate                    : 36 b/s
    Count of elements           : 839
    Stream size                 : 27.1 KiB (0%)
    Title                       : French
    Language                    : French
    Default                     : No
    Forced                      : No
    Text #10
    ID                          : 13
    Format                      : UTF-8
    Codec ID                    : S_TEXT/UTF8
    Codec ID/Info               : UTF-8 Plain Text
    Duration                    : 1 h 39 min
    Bit rate                    : 37 b/s
    Count of elements           : 830
    Stream size                 : 27.3 KiB (0%)
    Title                       : German
    Language                    : German
    Default                     : No
    Forced                      : No
    Text #11
    ID                          : 14
    Format                      : UTF-8
    Codec ID                    : S_TEXT/UTF8
    Codec ID/Info               : UTF-8 Plain Text
    Duration                    : 1 h 39 min
    Bit rate                    : 62 b/s
    Count of elements           : 836
    Stream size                 : 45.3 KiB (0%)
    Title                       : Greek
    Language                    : Greek
    Default                     : No
    Forced                      : No
    Text #12
    ID                          : 15
    Format                      : UTF-8
    Codec ID                    : S_TEXT/UTF8
    Codec ID/Info               : UTF-8 Plain Text
    Duration                    : 1 h 39 min
    Bit rate                    : 65 b/s
    Count of elements           : 830
    Stream size                 : 48.0 KiB (0%)
    Title                       : Hindi
    Language                    : Hindi
    Default                     : No
    Forced                      : No
    Text #13
    ID                          : 16
    Format                      : UTF-8
    Codec ID                    : S_TEXT/UTF8
    Codec ID/Info               : UTF-8 Plain Text
    Duration                    : 1 h 42 min
    Bit rate                    : 33 b/s
    Count of elements           : 829
    Stream size                 : 25.4 KiB (0%)
    Title                       : Hungarian
    Language                    : Hungarian
    Default                     : No
    Forced                      : No
    Text #14
    ID                          : 17
    Format                      : UTF-8
    Codec ID                    : S_TEXT/UTF8
    Codec ID/Info               : UTF-8 Plain Text
    Duration                    : 1 h 42 min
    Bit rate                    : 36 b/s
    Count of elements           : 839
    Stream size                 : 27.3 KiB (0%)
    Title                       : Korean
    Language                    : Korean
    Default                     : No
    Forced                      : No
    Text #15
    ID                          : 18
    Format                      : UTF-8
    Codec ID                    : S_TEXT/UTF8
    Codec ID/Info               : UTF-8 Plain Text
    Duration                    : 1 h 42 min
    Bit rate                    : 32 b/s
    Count of elements           : 839
    Stream size                 : 24.2 KiB (0%)
    Title                       : Polish
    Language                    : Polish
    Default                     : No
    Forced                      : No
    Text #16
    ID                          : 19
    Format                      : UTF-8
    Codec ID                    : S_TEXT/UTF8
    Codec ID/Info               : UTF-8 Plain Text
    Duration                    : 1 h 42 min
    Bit rate                    : 35 b/s
    Count of elements           : 857
    Stream size                 : 27.0 KiB (0%)
    Title                       : Portuguese
    Language                    : Portuguese
    Default                     : No
    Forced                      : No
    Text #17
    ID                          : 20
    Format                      : UTF-8
    Codec ID                    : S_TEXT/UTF8
    Codec ID/Info               : UTF-8 Plain Text
    Duration                    : 1 h 39 min
    Bit rate                    : 38 b/s
    Count of elements           : 874
    Stream size                 : 28.2 KiB (0%)
    Title                       : Romanian
    Language                    : Romanian
    Default                     : No
    Forced                      : No
    Text #18
    ID                          : 21
    Format                      : UTF-8
    Codec ID                    : S_TEXT/UTF8
    Codec ID/Info               : UTF-8 Plain Text
    Duration                    : 1 h 39 min
    Bit rate                    : 33 b/s
    Count of elements           : 830
    Stream size                 : 24.6 KiB (0%)
    Title                       : Spanish
    Language                    : Spanish
    Default                     : No
    Forced                      : No
    Text #19
    ID                          : 22
    Format                      : UTF-8
    Codec ID                    : S_TEXT/UTF8
    Codec ID/Info               : UTF-8 Plain Text
    Duration                    : 1 h 42 min
    Bit rate                    : 35 b/s
    Count of elements           : 837
    Stream size                 : 26.5 KiB (0%)
    Title                       : Turkish
    Language                    : Turkish
    Default                     : No
    Forced                      : No
    Text #20
    ID                          : 23
    Format                      : UTF-8
    Codec ID                    : S_TEXT/UTF8
    Codec ID/Info               : UTF-8 Plain Text
    Duration                    : 1 h 39 min
    Bit rate                    : 37 b/s
    Count of elements           : 830
    Stream size                 : 27.4 KiB (0%)
    Title                       : Chinese
    Language                    : Chinese
    Default                     : No
    Forced                      : No
    Menu
    00:00:00.000                : en:00:00:00.000
    00:04:20.260                : en:00:04:20.260
    00:11:08.042                : en:00:11:08.042
    00:14:49.889                : en:00:14:49.889
    00:19:39.345                : en:00:19:39.345
    00:22:42.778                : en:00:22:42.778
    00:29:22.135                : en:00:29:22.135
    00:34:33.780                : en:00:34:33.780
    00:39:10.265                : en:00:39:10.265
    00:44:59.113                : en:00:44:59.113
    00:49:06.318                : en:00:49:06.318
    00:54:23.260                : en:00:54:23.260
    00:58:45.981                : en:00:58:45.981
    01:04:09.054                : en:01:04:09.054
    01:09:10.396                : en:01:09:10.396
    01:17:46.203                : en:01:17:46.203
    01:22:19.935                : en:01:22:19.935
    01:27:10.434                : en:01:27:10.434
    01:31:24.396                : en:01:31:24.396
    01:40:24.018                : en:01:40:24.018

    Скриншоты

    Скачать .torrent

    Скачать торрент-файл бесплатно и на максимальной скорости!

    Как скачивать? · Что такое торрент? · Рейтинг и ограничения

    !ВНИМАНИЕ!
    Сайт не распространяет и не хранит электронные версии произведений, а занимается лишь лишь предоставлением доступа к создаваемому пользователями каталогу ссылок на торрент-файлы, которые содержат только списки хеш-сумм, убедительная просьба с жалобами обращаться напрямую к пользователю. Файлы для обмена на трекере предоставлены пользователями сайта, и администрация не несёт ответственности за их содержание. Просьба не заливать файлы, защищенные авторскими правами, а также файлы нелегального содержания!


    _________________
    [Профиль] [ЛС]
    Показать сообщения:    
    Ответить на тему

    Текущее время: Сегодня, в 06:06

    Часовой пояс: GMT + 2



    Вы не можете начинать темы
    Вы не можете отвечать на сообщения
    Вы не можете редактировать свои сообщения
    Вы не можете удалять свои сообщения
    Вы не можете голосовать в опросах
    Вы не можете прикреплять файлы к сообщениям
    Вы не можете скачивать файлы