BitTorrentTracker PerecTracker.org
BitTorrentTracker PerecTracker.org
    
Регистрация  ·  Вход
 
 · 
Забыли пароль?

  • Заклятие 2 / The Conjuring 2 (Джеймс Ван / James Wan) [2016, США, Канада, ужасы, мистика, драма, BDRip 1080p] Dub (iTunes) + Sub Rus, Eng + Original Eng

    Ответить на тему
     
    Автор Сообщение

    Light

    Создавать темы 16-Сен-2016 20:31

           

    [Цитировать]

    Заклятие 2 / The Conjuring 2
    Страна: США
    Студия: Atomic Monster
    Жанр: Ужасы, мистика, драма
    Год выпуска: 2016
    Продолжительность: 02:13:21
    Перевод: Профессиональный (дублированный) iTunes
    Cубтитры: Rus, Eng
    Оригинальная аудиодорожка: английский
    Режиссер: Джеймс Ван / James Wan
    В ролях: Патрик Уилсон, Вера Фармига, Мэдисон Вульф, Фрэнсис О’Коннор, Лорен Эспозито, Саймон МакБерни, Мария Дойл Кеннеди, Саймон Делани
    Описание: Фильм основан на случае, с которым столкнулись практикующие исследователи паранормальных явлений Эд и Лоррэйн Уоррены. На этот раз вызов будет из северного пригорода Лондона, где семья, состоящая из четырех детей и матери-одиночки, подвергается нападениям потусторонних сил. Супругам предстоит выяснить, какова природа этих явлений, полтергейст ли это, или что-то другое, и главное — почему именно этот дом и именно эта семья.

    Тип релиза: BDRip 1080p
    Контейнер: MKV
    Видео: MPEG-4 AVC, 14.1 Mбит/с, 1920x800, 23,976 fps
    Аудио: Rus, AC3, 384 kb/s (6 ch), 48 kHz
    Аудио 2: Eng, AC3, 640 kb/s (6 ch), 48 kHz
    Формат субтитров: softsub (SRT)

    MediaInfo

    Format : Matroska
    Format version : Version 4 / Version 2
    File size : 14.4 GiB
    Duration : 2h 13mn
    Overall bit rate : 15.4 Mbps
    Movie name : Заклятие 2. (Tonik)
    Encoded date : UTC 2016-09-01 14:21:48
    Writing application : mkvmerge v7.1.0 ('Good Love') 64bit built on Jul 27 2014 13:06:55
    Writing library : libebml v1.3.0 + libmatroska v1.4.1
    _STATISTICS_WRITING_APP : mkvmerge v7.1.0 ('Good Love') 64bit built on Jul 27 2014 13:06:55
    _STATISTICS_WRITING_DATE_UTC : 2016-09-01 14:21:48
    _STATISTICS_TAGS : BPS DURATION NUMBER_OF_FRAMES NUMBER_OF_BYTES
    DURATION : 02:13:11.859000000
    NUMBER_OF_FRAMES : 1743
    NUMBER_OF_BYTES : 48144
    Video
    ID : 1
    Format : AVC
    Format/Info : Advanced Video Codec
    Format profile : High@L4.1
    Format settings, CABAC : Yes
    Format settings, ReFrames : 5 frames
    Codec ID : V_MPEG4/ISO/AVC
    Bit rate : 14.1 Mbps
    Width : 1 920 pixels
    Height : 800 pixels
    Display aspect ratio : 2.40:1
    Frame rate mode : Variable
    Original frame rate : 23.976 fps
    Color space : YUV
    Chroma subsampling : 4:2:0
    Bit depth : 8 bits
    Scan type : Progressive
    Writing library : x264 core 148 r2705kMod 3f5ed56
    Encoding settings : cabac=1 / ref=5 / deblock=1:-3:-3 / analyse=0x3:0x133 / me=umh / subme=10 / psy=1 / fade_compensate=0.00 / psy_rd=1.05:0.00 / mixed_ref=1 / me_range=24 / chroma_me=1 / trellis=2 / 8x8dct=1 / cqm=0 / deadzone=21,11 / fast_pskip=0 / chroma_qp_offset=-2 / threads=12 / lookahead_threads=2 / sliced_threads=0 / nr=0 / decimate=0 / interlaced=0 / bluray_compat=0 / constrained_intra=0 / fgo=0 / bframes=8 / b_pyramid=2 / b_adapt=2 / b_bias=0 / direct=3 / weightb=1 / open_gop=0 / weightp=2 / keyint=250 / keyint_min=23 / scenecut=40 / intra_refresh=0 / rc_lookahead=60 / rc=crf / mbtree=0 / crf=17.5000 / qcomp=0.60 / qpmin=0 / qpmax=69 / qpstep=4 / vbv_maxrate=62500 / vbv_bufsize=78125 / crf_max=0.0 / nal_hrd=none / filler=0 / ip_ratio=1.30 / pb_ratio=1.20 / aq=3:0.75
    Language : English
    Default : Yes
    Forced : No
    Matrix coefficients : BT.709
    DURATION : 02:13:52.733000000
    NUMBER_OF_FRAMES : 192593
    NUMBER_OF_BYTES : 14415849968
    _STATISTICS_WRITING_APP : mkvmerge v7.1.0 ('Good Love') 64bit built on Jul 27 2014 13:06:55
    _STATISTICS_WRITING_DATE_UTC : 2016-09-01 14:21:48
    _STATISTICS_TAGS : BPS DURATION NUMBER_OF_FRAMES NUMBER_OF_BYTES
    Audio #1
    ID : 2
    Format : AC-3
    Format/Info : Audio Coding 3
    Mode extension : CM (complete main)
    Format settings, Endianness : Big
    Codec ID : A_AC3
    Duration : 2h 13mn
    Bit rate mode : Constant
    Bit rate : 384 Kbps
    Channel(s) : 6 channels
    Channel positions : Front: L C R, Side: L R, LFE
    Sampling rate : 48.0 KHz
    Bit depth : 16 bits
    Compression mode : Lossy
    Stream size : 368 MiB (2%)
    Title : iTunes
    Language : Russian
    Default : Yes
    Forced : No
    Audio #2
    ID : 3
    Format : AC-3
    Format/Info : Audio Coding 3
    Mode extension : CM (complete main)
    Format settings, Endianness : Big
    Codec ID : A_AC3
    Duration : 2h 13mn
    Bit rate mode : Constant
    Bit rate : 640 Kbps
    Channel(s) : 6 channels
    Channel positions : Front: L C R, Side: L R, LFE
    Sampling rate : 48.0 KHz
    Bit depth : 16 bits
    Compression mode : Lossy
    Stream size : 613 MiB (4%)
    Language : English
    Default : No
    Forced : No
    Text #1
    ID : 4
    Format : UTF-8
    Codec ID : S_TEXT/UTF8
    Codec ID/Info : UTF-8 Plain Text
    Title : Forced
    Language : Russian
    Default : Yes
    Forced : No
    Text #2
    ID : 5
    Format : UTF-8
    Codec ID : S_TEXT/UTF8
    Codec ID/Info : UTF-8 Plain Text
    Language : Russian
    Default : No
    Forced : No
    Text #3
    ID : 6
    Format : UTF-8
    Codec ID : S_TEXT/UTF8
    Codec ID/Info : UTF-8 Plain Text
    Language : English
    Default : No
    Forced : No
    Text #4
    ID : 7
    Format : UTF-8
    Codec ID : S_TEXT/UTF8
    Codec ID/Info : UTF-8 Plain Text
    Title : SDH
    Language : English
    Default : No
    Forced : No
    Menu
    00:00:00.000 : en:00:00:00.000
    00:08:24.671 : en:00:08:24.671
    00:18:40.703 : en:00:18:40.703
    00:28:34.212 : en:00:28:34.212
    00:40:01.399 : en:00:40:01.399
    00:48:46.841 : en:00:48:46.841
    01:02:14.314 : en:01:02:14.314
    01:09:29.665 : en:01:09:29.665
    01:21:55.869 : en:01:21:55.869
    01:29:26.486 : en:01:29:26.486
    01:38:53.469 : en:01:38:53.469
    01:48:15.364 : en:01:48:15.364
    02:03:10.508 : en:02:03:10.508
    02:07:36.816 : en:02:07:36.816

    Скриншоты

    Скачать .torrent

    Скачать торрент-файл бесплатно и на максимальной скорости!

    Как скачивать? · Что такое торрент? · Рейтинг и ограничения

    !ВНИМАНИЕ!
    Сайт не распространяет и не хранит электронные версии произведений, а занимается лишь лишь предоставлением доступа к создаваемому пользователями каталогу ссылок на торрент-файлы, которые содержат только списки хеш-сумм, убедительная просьба с жалобами обращаться напрямую к пользователю. Файлы для обмена на трекере предоставлены пользователями сайта, и администрация не несёт ответственности за их содержание. Просьба не заливать файлы, защищенные авторскими правами, а также файлы нелегального содержания!


    _________________
    [Профиль] [ЛС]
    Показать сообщения:    
    Ответить на тему

    Текущее время: Сегодня, в 09:00

    Часовой пояс: GMT + 2



    Вы не можете начинать темы
    Вы не можете отвечать на сообщения
    Вы не можете редактировать свои сообщения
    Вы не можете удалять свои сообщения
    Вы не можете голосовать в опросах
    Вы не можете прикреплять файлы к сообщениям
    Вы не можете скачивать файлы