BitTorrentTracker PerecTracker.org
BitTorrentTracker PerecTracker.org
    
Регистрация  ·  Вход
 
 · 
Забыли пароль?

  • Подземное население / Люди-кроты / The Mole People (Вирджил В. Фогель / Virgil W. Vogel) [1956, США, ужасы, фантастика, фэнтези, BDRip 720p] VO + Sub Rus, Eng + Original Eng

    Ответить на тему
     
    Автор Сообщение

    Light

    Создавать темы 16-Сен-2016 20:31

           

    [Цитировать]

    Подземное население / Люди-кроты / The Mole People
    -Страна: США
    Жанр: ужасы, фантастика, фэнтези
    Год выпуска: 1956
    Продолжительность: 01:17:29-Перевод: Одноголосый закадровый - SATKUR-Cубтитры: русские, английские
    Оригинальная аудиодорожка: английский-Режиссер: Вирджил В. Фогель / Virgil W. Vogel-В ролях: Джон Агар, Синтия Патрик, Хью Бомонт, Алан Напье, Нестор Пайва, Фил Чэмберс, Родд Редвинг, Робин Хьюз, Фрэнк Бакстер, Джо Абдулла-Описание:
    Во время раскопок чего-то очень древнего предположительно в Месопотамии, археологи случайно находят табличку с шумерской надписью когда-то находившейся на храме. Текст написан от лица мифического царя Шару. Но тут случается землетрясение и свежепрочитанная табличка раскалывается. Археологи, однако, не унывают, потому что местный мальчик-пастух приносит им древнюю лампу на которой изображён местный, шумерский вариант Всемирного потопа. Выпытав у мальчика, что лампа была найдена у склонов горы Кухитара, находящейся поблизости, доктор Роджер Бентли решается довериться тексту на лампе и штурмовать гору, чтобы попытаться найти там останки мифической шумерской династии. Найдёт он, разумеется, гораздо больше, чем просто останки.-Доп. информация: за блюрик спасибо igor nisan--Сэмпл: Скачать-Тип релиза: BDRip 720p
    Контейнер: MKV-Видео: 1 280x640 (2.000); 7000 Kbps; 24.000 fps;
    Аудио 1: Russian; AC3; 48.0 KHz; 2ch; 192 Kbps
    Аудио 2: English; FLAC; 48.0 KHz; 2ch; 191 Kbps

    MediaInfo

    Format : Matroska
    Format version : Version 4 / Version 2
    File size : 4.00 GiB
    Duration : 1h 17mn
    Overall bit rate mode : Variable
    Overall bit rate : 7 383 Kbps
    Encoded date : UTC 2016-05-30 05:57:58
    Writing application : mkvmerge v8.3.0 ('Over the Horizon') 64bit
    Writing library : libebml v1.3.1 + libmatroska v1.4.2
    Attachments : poster.jpg
    Video
    ID : 1
    Format : AVC
    Format/Info : Advanced Video Codec
    Format profile : High@L4.1
    Format settings, CABAC : Yes
    Format settings, ReFrames : 10 frames
    Codec ID : V_MPEG4/ISO/AVC
    Duration : 1h 17mn
    Bit rate : 7 000 Kbps
    Width : 1 280 pixels
    Height : 640 pixels
    Display aspect ratio : 2.000
    Frame rate mode : Constant
    Frame rate : 24.000 fps
    Color space : YUV
    Chroma subsampling : 4:2:0
    Bit depth : 8 bits
    Scan type : Progressive
    Bits/(Pixel*Frame) : 0.356
    Stream size : 3.79 GiB (95%)
    Writing library : x264 core 148 r2638 7599210
    Encoding settings : cabac=1 / ref=10 / deblock=1:-3:-3 / analyse=0x3:0x133 / me=umh / subme=10 / psy=1 / psy_rd=1.00:0.50 / mixed_ref=1 / me_range=32 / chroma_me=1 / trellis=2 / 8x8dct=1 / cqm=0 / deadzone=21,11 / fast_pskip=0 / chroma_qp_offset=-4 / threads=6 / lookahead_threads=1 / sliced_threads=0 / nr=0 / decimate=0 / interlaced=0 / bluray_compat=0 / constrained_intra=0 / bframes=10 / b_pyramid=2 / b_adapt=2 / b_bias=0 / direct=3 / weightb=1 / open_gop=0 / weightp=2 / keyint=240 / keyint_min=24 / scenecut=40 / intra_refresh=0 / rc_lookahead=60 / rc=2pass / mbtree=0 / bitrate=7000 / ratetol=1.0 / qcomp=0.65 / qpmin=0 / qpmax=69 / qpstep=4 / cplxblur=20.0 / qblur=0.5 / vbv_maxrate=62500 / vbv_bufsize=78125 / nal_hrd=none / filler=0 / ip_ratio=1.40 / pb_ratio=1.30 / aq=1:1.00
    Default : Yes
    Forced : No
    Audio #1
    ID : 2
    Format : AC-3
    Format/Info : Audio Coding 3
    Mode extension : CM (complete main)
    Format settings, Endianness : Big
    Codec ID : A_AC3
    Duration : 1h 17mn
    Bit rate mode : Constant
    Bit rate : 192 Kbps
    Channel(s) : 2 channels
    Channel positions : Front: L R
    Sampling rate : 48.0 KHz
    Frame rate : 31.250 fps (1536 spf)
    Compression mode : Lossy
    Stream size : 106 MiB (3%)
    Title : VO Satkur
    Language : Russian
    Default : Yes
    Forced : No
    Audio #2
    ID : 3
    Format : FLAC
    Format/Info : Free Lossless Audio Codec
    Codec ID : A_FLAC
    Duration : 1h 17mn
    Bit rate mode : Variable
    Bit rate : 191 Kbps
    Channel(s) : 2 channels
    Channel positions : Front: L R
    Sampling rate : 48.0 KHz
    Frame rate : 11.719 fps (4096 spf)
    Bit depth : 16 bits
    Stream size : 106 MiB (3%)
    Writing library : libFLAC 1.3.1 (UTC 2014-11-25)
    Language : English
    Default : No
    Forced : No
    Text #1
    ID : 4
    Format : UTF-8
    Codec ID : S_TEXT/UTF8
    Codec ID/Info : UTF-8 Plain Text
    Duration : 1h 15mn
    Bit rate : 74 bps
    Count of elements : 656
    Stream size : 41.3 KiB (0%)
    Language : Russian
    Default : No
    Forced : No
    Text #2
    ID : 5
    Format : UTF-8
    Codec ID : S_TEXT/UTF8
    Codec ID/Info : UTF-8 Plain Text
    Duration : 1h 15mn
    Bit rate : 45 bps
    Count of elements : 692
    Stream size : 25.4 KiB (0%)
    Language : English
    Default : No
    Forced : No

    Скриншоты

    Скачать .torrent

    Скачать торрент-файл бесплатно и на максимальной скорости!

    Как скачивать? · Что такое торрент? · Рейтинг и ограничения

    !ВНИМАНИЕ!
    Сайт не распространяет и не хранит электронные версии произведений, а занимается лишь лишь предоставлением доступа к создаваемому пользователями каталогу ссылок на торрент-файлы, которые содержат только списки хеш-сумм, убедительная просьба с жалобами обращаться напрямую к пользователю. Файлы для обмена на трекере предоставлены пользователями сайта, и администрация не несёт ответственности за их содержание. Просьба не заливать файлы, защищенные авторскими правами, а также файлы нелегального содержания!


    _________________
    [Профиль] [ЛС]
    Показать сообщения:    
    Ответить на тему

    Текущее время: Сегодня, в 10:26

    Часовой пояс: GMT + 2



    Вы не можете начинать темы
    Вы не можете отвечать на сообщения
    Вы не можете редактировать свои сообщения
    Вы не можете удалять свои сообщения
    Вы не можете голосовать в опросах
    Вы не можете прикреплять файлы к сообщениям
    Вы не можете скачивать файлы