BitTorrentTracker PerecTracker.org
BitTorrentTracker PerecTracker.org
    
Регистрация  ·  Вход
 
 · 
Забыли пароль?

  • Смерть в три дня / In 3 Tagen bist du tot / Dead in 3 Days (Андреас Прохаска / Andreas Prochaska) [2006, Австрия, триллер, ужасы, BDRemux 1080i] [GER Transfer] DVO + MVO + Sub Eng + Original Ger + Commentary + Descriptive

    Ответить на тему
     
    Автор Сообщение

    Light

    Создавать темы 16-Сен-2016 20:31

           

    [Цитировать]

    Смерть в три дня / In 3 Tagen bist du tot / Dead in 3 Days«'In 3 days you're dead!'»
    Страна: Австрия
    Жанр: триллер, ужасы
    Год выпуска: 2006
    Продолжительность: 01:33:18
    -
    Перевод 1: Профессиональный (двухголосый закадровый) Мьюзик-Трейд
    Перевод 2: Профессиональный (многоголосый закадровый) РТР
    Cубтитры: английские
    Оригинальная аудиодорожка: немецкий
    -
    Режиссер: Андреас Прохаска / Andreas Prochaska
    В ролях: Сабрина Рейтер, Джулия Роза Стокл, Михаэль Штайнохер, Лоуренс Рапп, Надя Фогель, Юлиан Шарп, Андреас Киндль, Карл Фишер, Мичу Фриш, Амели Яролим
    -
    Описание: Несколько молодых людей в день окончания школы получают SMS-сообщение, в котором говорится, что все они умрут в ближайшие 3 дня. Посчитав это сообщение глупой шуткой, они не обращают внимания на него, но вскоре предупреждение начинает сбываться - несколько человек гибнут. Только после этого друзья понимают, что все происходящее неразрывно связано с одним трагическим происшествием, которое случилось с ними, когда они были еще детьми...

    Тип релиза: BDRemux 1080i
    Контейнер: MKV
    Видео: MPEG-4 AVC / PAL 16:9 / 1920x1080 (1,85:1) / 15920 kbps / 25,000 fps / 0.307 bit/pixel / High@L4.1
    Аудио 1: Russian / Dolby Digital Audio / 5.1 Ch / 48 kHz / 384 kbps / 16 bit / DVO / Мьюзик-Трейд
    Аудио 2: Russian / Dolby Digital Audio / 2.0 Ch / 48 kHz / 192 kbps / 16 bit / MVO / РТР
    Аудио 3: German / DTS-HD Master Audio / 5.1 Ch / 48 kHz / 1965 kbps / 16-bit (DTS Core: 5.1 Ch / 48 kHz / 1509 kbps / 16-bit) / Original
    Аудио 4: German / Dolby Digital Audio / 2.0 Ch / 48 kHz / 192 kbps / 16 bit / Commentary
    Аудио 5: German / Dolby Digital Audio / 2.0 Ch / 48 kHz / 192 kbps / 16 bit / Descriptive
    Формат субтитров: softsub (SRT)
    Навигация по главам: есть

    LPCM => DTS-HD MA

    ****************************************
    MAS Version Number = 2.00.24
    AUDIO INPUT SETTINGS
    ------------------------------------------------------
    Media Type            = Blu-ray Disc (.dtshd)
    Product Type          = DTS-HD Master Audio
    Bit Rate              = 1509 kbps
    Channel Layout        = 5.1 - L, R, C, LFE, Ls, Rs
    Bit Width             = 16
    DialNorm              = -31 dBFS (No Attenuation)
    Sample Rate           = 48 kHz
    -3db Rear Attenuation = false
    ES Phase Shift        = false
    ES Pre-Mixed          = false
    Using 96/24 Core      = false
    INPUT FILES
    ------------------------------------------------------
    Left                      = D:\TEST\german.multi.L.wav
    Right                     = D:\TEST\german.multi.R.wav
    Center                    = D:\TEST\german.multi.C.wav
    Low Frequency Effects     = D:\TEST\german.multi.LFE.wav
    Left Surround             = D:\TEST\german.multi.SL.wav
    Right Surround            = D:\TEST\german.multi.SR.wav
    BITSTREAM SETTINGS
    ------------------------------------------------------
    Program Info                                     =
    Enable Remapping                                 = false
    TIME CODE SETTINGS
    ------------------------------------------------------
    Frame Rate            = 25
    Encode Entire File    = true
    Start Time            = 00:00:00:00
    End   Time            = 01:33:03:08
    Use Reference         = false
    OUTPUT LOCATION
    ------------------------------------------------------
    Directory             = C:\Users\flaSI-I\Documents\
    Filename              = DTSENC.dtshd
    DOWNMIX SETTINGS
    ------------------------------------------------------
    5.1 Downmix Not Enabled
    2.0 Downmix Not Enabled
    ----------------------------------------------------
    MD5: 4d45fbaec1996547ec110d915ed4e3da
    Avg  Bitrate CBR core + VBR Lossless ext (kbps): 1965
    Peak Bitrate CBR core + VBR Lossless ext (kbps): 3189
    PBR max from second 339 to second 352
    PBR max from second 353 to second 382
    PBR max from second 383 to second 386
    PBR max from second 388 to second 391
    PBR max from second 392 to second 396
    PBR max from second 397 to second 406
    PBR max from second 411 to second 418
    PBR max from second 419 to second 422
    PBR max from second 646 to second 647
    PBR max from second 650 to second 653
    PBR max from second 874 to second 878
    PBR max from second 881 to second 889
    PBR max from second 890 to second 891
    PBR max from second 892 to second 894
    PBR max from second 895 to second 897
    PBR max from second 898 to second 905
    PBR max from second 953 to second 956
    PBR max from second 979 to second 984
    PBR max from second 997 to second 1002
    PBR max from second 1003 to second 1004
    PBR max from second 1006 to second 1020
    PBR max from second 1021 to second 1036
    PBR max from second 1038 to second 1048
    PBR max from second 1061 to second 1073
    PBR max from second 1074 to second 1078
    PBR max from second 1159 to second 1161
    PBR max from second 1162 to second 1167
    PBR max from second 1936 to second 1938
    PBR max from second 2275 to second 2276
    PBR max from second 2443 to second 2445
    PBR max from second 2513 to second 2514
    PBR max from second 2589 to second 2590
    PBR max from second 2620 to second 2621
    PBR max from second 2629 to second 2632
    PBR max from second 2634 to second 2636
    PBR max from second 2645 to second 2647
    PBR max from second 2673 to second 2676
    PBR max from second 2680 to second 2681
    PBR max from second 2995 to second 2996
    PBR max from second 2999 to second 3000
    PBR max from second 3018 to second 3019
    PBR max from second 3154 to second 3156
    PBR max from second 3396 to second 3398
    PBR max from second 3564 to second 3566
    PBR max from second 3567 to second 3569
    PBR max from second 3571 to second 3572
    PBR max from second 4084 to second 4085
    PBR max from second 4437 to second 4438
    PBR max from second 4693 to second 4695
    PBR max from second 4708 to second 4710
    PBR max from second 4875 to second 4877
    PBR max from second 4887 to second 4888
    PBR max from second 5151 to second 5152

    MediaInfo

    Общее
    Уникальный идентификатор                 : 226116786783795467608476953530075091329 (0xAA1C8251BA16499498892B7524DE9181)
    Полное имя                               : D:\In 3 Tagen bist du tot.2006.BDRemux.1080i.mkv
    Формат                                   : Matroska
    Версия формата                           : Version 4 / Version 2
    Размер файла                             : 12,3 Гбайт
    Продолжительность                        : 1 ч. 33 м.
    Режим общего битрейта                    : Переменный
    Общий поток                              : 18,8 Мбит/сек
    Название фильма                          : Release for RuTracker © flaSI-I
    Дата кодирования                         : UTC 2016-09-03 10:35:45
    Программа кодирования                    : mkvmerge v9.4.0 ('Knurl') 64bit
    Библиотека кодирования                   : libebml v1.3.4 + libmatroska v1.4.5
    Видео
    Идентификатор                            : 1
    Формат                                   : AVC
    Формат/Информация                        : Advanced Video Codec
    Профиль формата                          : High@L4.1
    Параметр CABAC формата                   : Да
    Параметр ReFrames формата                : 4 кадра
    Параметр GOP формата                     : M=3, N=24
    Идентификатор кодека                     : V_MPEG4/ISO/AVC
    Продолжительность                        : 1 ч. 33 м.
    Вид битрейта                             : Переменный
    Битрейт                                  : 15,9 Мбит/сек
    Максимальный битрейт                     : 24,0 Мбит/сек
    Ширина                                   : 1920 пикселей
    Высота                                   : 1080 пикселей
    Соотношение сторон                       : 16:9
    Режим частоты кадров                     : Постоянный
    Частота кадров                           : 25,000 кадров/сек
    Стандарт вещания                         : PAL
    Цветовое пространство                    : YUV
    Субдискретизация насыщенности            : 4:2:0
    Битовая глубина                          : 8 бит
    Тип развёртки                            : MBAFF
    Метод сохранения типа развёртки          : Чередующиеся поля
    Порядок развёртки                        : Верхнее поле первое
    Бит/(Пиксели*Кадры)                      : 0.307
    Размер потока                            : 10,3 Гбайт (84%)
    Язык                                     : German
    Default                                  : Да
    Forced                                   : Нет
    Цветовой диапазон                        : Limited
    Основные цвета                           : BT.709
    Характеристики трансфера                 : BT.709
    Коэффициенты матрицы                     : BT.709
    Аудио #1
    Идентификатор                            : 2
    Формат                                   : AC-3
    Формат/Информация                        : Audio Coding 3
    Расширение режима                        : CM (complete main)
    Параметр Endianness формата              : Big
    Идентификатор кодека                     : A_AC3
    Продолжительность                        : 1 ч. 33 м.
    Вид битрейта                             : Постоянный
    Битрейт                                  : 384 Кбит/сек
    Каналы                                   : 6 каналов
    Расположение каналов                     : Front: L C R, Side: L R, LFE
    Частота                                  : 48,0 КГц
    Частота кадров                           : 31,250 кадров/сек (1536 spf)
    Метод сжатия                             : С потерями
    Размер потока                            : 256 Мбайт (2%)
    Заголовок                                : DVO / Мьюзик-трейд
    Язык                                     : Russian
    Default                                  : Да
    Forced                                   : Нет
    Аудио #2
    Идентификатор                            : 3
    Формат                                   : AC-3
    Формат/Информация                        : Audio Coding 3
    Расширение режима                        : CM (complete main)
    Параметр Endianness формата              : Big
    Идентификатор кодека                     : A_AC3
    Продолжительность                        : 1 ч. 33 м.
    Вид битрейта                             : Постоянный
    Битрейт                                  : 192 Кбит/сек
    Каналы                                   : 2 канала
    Расположение каналов                     : Front: L R
    Частота                                  : 48,0 КГц
    Частота кадров                           : 31,250 кадров/сек (1536 spf)
    Метод сжатия                             : С потерями
    Размер потока                            : 128 Мбайт (1%)
    Заголовок                                : MVO / РТР
    Язык                                     : Russian
    Default                                  : Нет
    Forced                                   : Нет
    Аудио #3
    Идентификатор                            : 4
    Формат                                   : DTS
    Формат/Информация                        : Digital Theater Systems
    Профиль формата                          : MA / Core
    Режим                                    : 16
    Параметр Endianness формата              : Big
    Идентификатор кодека                     : A_DTS
    Продолжительность                        : 1 ч. 33 м.
    Вид битрейта                             : Переменный / Постоянный
    Битрейт                                  : 1964 Кбит/сек / 1509 Кбит/сек
    Каналы                                   : 6 каналов
    Расположение каналов                     : Front: L C R, Side: L R, LFE
    Частота                                  : 48,0 КГц
    Частота кадров                           : 93,750 кадра/сек (512 spf)
    Битовая глубина                          : 16 бит
    Метод сжатия                             : Без потерь / Lossy
    Размер потока                            : 1,28 Гбайт (10%)
    Заголовок                                : Original
    Язык                                     : German
    Default                                  : Нет
    Forced                                   : Нет
    Аудио #4
    Идентификатор                            : 5
    Формат                                   : AC-3
    Формат/Информация                        : Audio Coding 3
    Расширение режима                        : CM (complete main)
    Параметр Endianness формата              : Big
    Идентификатор кодека                     : A_AC3
    Продолжительность                        : 1 ч. 33 м.
    Вид битрейта                             : Постоянный
    Битрейт                                  : 192 Кбит/сек
    Каналы                                   : 2 канала
    Расположение каналов                     : Front: L R
    Частота                                  : 48,0 КГц
    Частота кадров                           : 31,250 кадров/сек (1536 spf)
    Метод сжатия                             : С потерями
    Размер потока                            : 128 Мбайт (1%)
    Заголовок                                : Commentary
    Язык                                     : German
    Default                                  : Нет
    Forced                                   : Нет
    Аудио #5
    Идентификатор                            : 6
    Формат                                   : AC-3
    Формат/Информация                        : Audio Coding 3
    Расширение режима                        : CM (complete main)
    Параметр Endianness формата              : Big
    Идентификатор кодека                     : A_AC3
    Продолжительность                        : 1 ч. 33 м.
    Вид битрейта                             : Постоянный
    Битрейт                                  : 192 Кбит/сек
    Каналы                                   : 2 канала
    Расположение каналов                     : Front: L R
    Частота                                  : 48,0 КГц
    Частота кадров                           : 31,250 кадров/сек (1536 spf)
    Метод сжатия                             : С потерями
    Размер потока                            : 128 Мбайт (1%)
    Заголовок                                : Descriptive
    Язык                                     : German
    Default                                  : Нет
    Forced                                   : Нет
    Текст
    Идентификатор                            : 7
    Формат                                   : UTF-8
    Идентификатор кодека                     : S_TEXT/UTF8
    Идентификатор кодека/Информация          : UTF-8 Plain Text
    Продолжительность                        : 1 ч. 27 м.
    Битрейт                                  : 16 бит/сек
    Count of elements                        : 434
    Размер потока                            : 10,7 Кбайт (0%)
    Заголовок                                : ENGLiSH
    Язык                                     : English
    Default                                  : Нет
    Forced                                   : Нет
    Меню
    00:00:00.000                             : en:00:00:00.000
    00:02:47.440                             : en:00:02:47.440
    00:06:45.560                             : en:00:06:45.560
    00:10:12.320                             : en:00:10:12.320
    00:15:37.920                             : en:00:15:37.920
    00:19:21.720                             : en:00:19:21.720
    00:22:16.080                             : en:00:22:16.080
    00:25:43.040                             : en:00:25:43.040
    00:27:34.000                             : en:00:27:34.000
    00:29:51.560                             : en:00:29:51.560
    00:35:43.760                             : en:00:35:43.760
    00:44:56.560                             : en:00:44:56.560
    00:51:57.960                             : en:00:51:57.960
    00:56:20.480                             : en:00:56:20.480
    00:59:38.520                             : en:00:59:38.520
    01:05:22.080                             : en:01:05:22.080
    01:09:14.040                             : en:01:09:14.040
    01:12:14.560                             : en:01:12:14.560
    01:18:41.920                             : en:01:18:41.920
    01:22:29.440                             : en:01:22:29.440
    01:26:53.080                             : en:01:26:53.080
    01:29:30.000                             : en:01:29:30.000

    Скриншоты

    -


    Скачать .torrent

    Скачать торрент-файл бесплатно и на максимальной скорости!

    Как скачивать? · Что такое торрент? · Рейтинг и ограничения

    !ВНИМАНИЕ!
    Сайт не распространяет и не хранит электронные версии произведений, а занимается лишь лишь предоставлением доступа к создаваемому пользователями каталогу ссылок на торрент-файлы, которые содержат только списки хеш-сумм, убедительная просьба с жалобами обращаться напрямую к пользователю. Файлы для обмена на трекере предоставлены пользователями сайта, и администрация не несёт ответственности за их содержание. Просьба не заливать файлы, защищенные авторскими правами, а также файлы нелегального содержания!


    _________________
    [Профиль] [ЛС]
    Показать сообщения:    
    Ответить на тему

    Текущее время: Сегодня, в 06:19

    Часовой пояс: GMT + 2



    Вы не можете начинать темы
    Вы не можете отвечать на сообщения
    Вы не можете редактировать свои сообщения
    Вы не можете удалять свои сообщения
    Вы не можете голосовать в опросах
    Вы не можете прикреплять файлы к сообщениям
    Вы не можете скачивать файлы