BitTorrentTracker PerecTracker.org
BitTorrentTracker PerecTracker.org
    
Регистрация  ·  Вход
 
 · 
Забыли пароль?

  • Отмель / The Shallows (Хауме Кольет-Серра / Jaume Collet-Serra ) [2016, США, Ужасы, триллер, драма, BDRip, HD (720p)] DUB + Original + sub (rus, eng)

    Ответить на тему
     
    Автор Сообщение

    rechyn

    Создавать темы 16-Сен-2016 20:31

           

    [Цитировать]

    Отмель / The Shallows
    «What was once in the deep is now in the shallows»
    6.398 / 10 6.60 / 10
    -Год выпуска: 2016
    Страна: США
    Жанр: Ужасы, триллер, драма
    Продолжительность: 01:26:16
    Перевод: Дублированный (iTunes)
    Оригинальная аудиодорожка: Есть
    Cубтитры: Русские форсированные, Английские форсированные, Русские, Английские
    Режиссёр: Хауме Кольет-Серра
    Сценарий: Энтони Джазвински
    Продюсер: Линн Харрис, Матти Лешем, Хауме Кольет-Серра
    Оператор: Флавио Мартинес Лабиано
    Композитор: Марко Белтрами
    Художник: Хью Бэйтап, Фиона Донован, Нэйтан Бланко Фуро
    Монтаж: Джоэль Негрон
    В ролях: Блейк Лайвли, Оскар Хаэнада, Бретт Каллен, Седона Ледже, Пабло Кальва, Диего Эспехель, Джанелл Бэйли, Ава Дин, Челси [цензура], Салли Сигалл
    Бюджет: $17 000 000
    Сборы в США: $55 046 393
    Сборы в мире: + $55 208 102 = $110 254 495
    Сборы в России: $3 094 975
    Мировая премьера: 21 июня 2016
    Премьера (РФ): 7 июля 2016, «WDSSPR»
    Описание: Бескрайний океан, безлюдный пляж и идеальная погода для серфингистов в поисках хорошей волны. Казалось бы, ничто не предвещает беды для очаровательной любительницы серфинга в одиночку. Разве что свидание тет-а-тет с гигантской акулой, которая загонит спортсменку на песчаную отмель и не отступит до тех пор, пока не получит своё.-Качество исходника: BDRemux (HDClub)
    Качество: BDRip
    Тип: HD (720p)
    Контейнер: M4V
    Видео: H.264, 1280x544, 2.35:1, 5 000 Kbps, 23.976 (24000/1001) fps
    Аудио 1: Русский/Дублированный (iTunes), AAC / 2.0 / 160 Kbps / 48.0 KHz
    Аудио 2: Английский/Оригинальная дорожка , AAC / 2.0 / 160 Kbps / 48.0 KHz
    Аудио 3: Русский/Дублированный (iTunes), AC-3 / 5.1 / 384 Kbps / 48.0 KHz
    Аудио 4: Английский/Оригинальная дорожка , AC-3 / 5.1 / 640 Kbps / 48.0 KHz
    Субтитры 1: Русские форсированные
    Субтитры 2: Английские форсированные
    Субтитры 3: Русские полные
    Субтитры 4: Английские полные
    -

    iTunes Meta Tags

    Sort Name: Shallows
    XID: Apple:vendor_id:2016-928626
    contentID: 1120494274
    Screenwriters: Энтони Джазвински
    Producers: Линн Харрис, Матти Лешем, Хауме Кольет-Серра
    Director: Хауме Кольет-Серра
    Cast: Блейк Лайвли, Оскар Хаэнада, Бретт Каллен, Седона Ледже, Пабло Кальва, Диего Эспехель, Джанелл Бэйли, Ава Дин, Челси [цензура], Салли Сигалл, Алена Фалалеева, Бруно Соэйру, Александр Новиков, Валентина Ляпина
    Studio: Columbia Pictures
    Rating: 4
    Long Description: Бескрайний океан, безлюдный пляж и идеальная погода для серфингистов в поисках хорошей волны. Казалось бы, ничто не предвещает беды для очаровательной любительницы серфинга в одиночку. Разве что свидание тет-а-тет с гигантской акулой, которая загонит спортсменку на песчаную отмель и не отступит до тех пор, пока не получит своё.
    Description: Бескрайний океан, безлюдный пляж и идеальная погода для серфингистов в поисках хорошей волны. Казалось бы, ничто не предвещает беды для очаровательной любительницы серфинга в одиночку. Разве что свидание тет-а-тет с гигантской акулой, которая загонит спортсменку на песчаную отмель и не отступит до тех пор, пока не получит своё.
    Release Date: 2016-06-21T08:00:00Z
    Genre: Drama
    Artist: Jaume Collet-Serra
    Name: The Shallows

    MediaInfo

    General
    Complete name                            : /Users/imac/HandBrake/The Shallows (720p HD).m4v
    Format                                   : MPEG-4
    Codec ID                                 : M4V  (M4V /M4A /mp42/isom)
    File size                                : 3.82 GiB
    Duration                                 : 1h 26mn
    Overall bit rate mode                    : Variable
    Overall bit rate                         : 6 339 Kbps
    Movie name                               : The Shallows
    Performer                                : Jaume Collet-Serra
    Director                                 : Хауме Кольет-Серра
    Actor                                    : Блейк Лайвли / Оскар Хаэнада / Бретт Каллен / Седона Ледже / Пабло Кальва / Диего Эспехель / Джанелл Бэйли / Ава Дин / Челси [цензура] / Салли Сигалл / Алена Фалалеева / Бруно Соэйру / Александр Новиков / Валентина Ляпина
    Screenplay by                            : Энтони Джазвински
    Producer                                 : Линн Харрис / Матти Лешем / Хауме Кольет-Серра
    Production studio                        : Columbia Pictures
    Genre                                    : Drama
    ContentType                              : Short Film
    Description                              : Бескрайний океан, безлюдный пляж и идеальная погода для серфингистов в поисках хорошей волны. Казалось бы, ничто не предвещает беды для очаровательной любительницы серфинга в одиночку. Разве что свидание тет-а-тет с гигантской акулой, которая загонит спортсменку на песчаную отмель и не отступит до тех пор, пока не получит своё.
    Recorded date                            : UTC 2016-06-21 08:00:00
    Encoded date                             : UTC 2016-09-16 16:40:09
    Tagged date                              : UTC 2016-09-16 16:42:01
    Cover                                    : Yes
    Rating                                   : None
    Title/Sort                               : Shallows
    LongDescription                          : Бескрайний океан, безлюдный пляж и идеальная погода для серфингистов в поисках хорошей волны. Казалось бы, ничто не предвещает беды для очаровательной любительницы серфинга в одиночку. Разве что свидание тет-а-тет с гигантской акулой, которая загонит спортсменку на песчаную отмель и не отступит до тех пор, пока не получит своё.
    HDVideo                                  : Yes
    AppleStoreCatalogID                      : 1120494274
    Vendor                                   : Apple:vendor_id:2016-928626
    ContentRating                            : mpaa|PG-13|300|
    Video #1
    ID                                       : 1
    Format                                   : AVC
    Format/Info                              : Advanced Video Codec
    Format profile                           : High@L3.1
    Format settings, CABAC                   : No
    Format settings, ReFrames                : 3 frames
    Codec ID                                 : avc1
    Codec ID/Info                            : Advanced Video Coding
    Duration                                 : 1h 26mn
    Source duration                          : 1h 26mn
    Bit rate                                 : 5 000 Kbps
    Width                                    : 1 280 pixels
    Height                                   : 544 pixels
    Display aspect ratio                     : 2.35:1
    Frame rate mode                          : Variable
    Frame rate                               : 23.976 (24000/1001) fps
    Minimum frame rate                       : 23.974 fps
    Maximum frame rate                       : 23.981 fps
    Color space                              : YUV
    Chroma subsampling                       : 4:2:0
    Bit depth                                : 8 bits
    Scan type                                : Progressive
    Bits/(Pixel*Frame)                       : 0.299
    Stream size                              : 3.01 GiB (79%)
    Source stream size                       : 3.01 GiB (79%)
    Title                                    : Main Program
    Writing library                          : x264 core 142 r2479 dd79a61
    Encoding settings                        : cabac=0 / ref=3 / deblock=1:-3:-3 / analyse=0x3:0x113 / me=umh / subme=9 / psy=1 / psy_rd=1.00:0.15 / mixed_ref=1 / me_range=32 / chroma_me=1 / trellis=0 / 8x8dct=1 / cqm=0 / deadzone=21,11 / fast_pskip=0 / chroma_qp_offset=-2 / threads=36 / lookahead_threads=3 / sliced_threads=0 / nr=0 / decimate=0 / interlaced=0 / bluray_compat=0 / constrained_intra=0 / bframes=3 / b_pyramid=0 / b_adapt=2 / b_bias=0 / direct=1 / weightb=0 / open_gop=0 / weightp=0 / keyint=240 / keyint_min=24 / scenecut=40 / intra_refresh=0 / rc_lookahead=40 / rc=2pass / mbtree=1 / bitrate=5000 / ratetol=1.0 / qcomp=0.65 / qpmin=0 / qpmax=69 / qpstep=4 / cplxblur=20.0 / qblur=0.5 / vbv_maxrate=9500 / vbv_bufsize=9500 / nal_hrd=none / filler=0 / ip_ratio=1.40 / aq=1:1.10
    Language                                 : English
    Encoded date                             : UTC 2016-09-16 16:40:09
    Tagged date                              : UTC 2016-09-16 16:40:18
    Color range                              : Limited
    Color primaries                          : BT.709
    Transfer characteristics                 : BT.709
    Matrix coefficients                      : BT.709
    Menus                                    : 10,11
    Video #2
    ID                                       : 11
    Format                                   : JPEG
    Codec ID                                 : jpeg
    Duration                                 : 1h 26mn
    Bit rate mode                            : Variable
    Bit rate                                 : 1 228 bps
    Width                                    : 640 pixels
    Height                                   : 272 pixels
    Display aspect ratio                     : 2.35:1
    Frame rate mode                          : Variable
    Frame rate                               : 0.003 fps
    Minimum frame rate                       : 0.002 fps
    Maximum frame rate                       : 0.005 fps
    Color space                              : YUV
    Chroma subsampling                       : 4:2:0
    Bit depth                                : 8 bits
    Compression mode                         : Lossy
    Bits/(Pixel*Frame)                       : 2.351
    Stream size                              : 799 KiB (0%)
    Title                                    : Chapter Images
    Language                                 : English
    Default                                  : No
    Encoded date                             : UTC 2016-09-16 16:41:01
    Tagged date                              : UTC 2016-09-16 16:41:01
    Menu For                                 : 1
    Audio #1
    ID                                       : 2
    Format                                   : AAC
    Format/Info                              : Advanced Audio Codec
    Format profile                           : LC
    Codec ID                                 : 40
    Duration                                 : 1h 26mn
    Bit rate mode                            : Variable
    Bit rate                                 : 157 Kbps
    Maximum bit rate                         : 228 Kbps
    Channel(s)                               : 2 channels
    Channel positions                        : Front: L R
    Sampling rate                            : 48.0 KHz
    Frame rate                               : 46.875 fps (1024 spf)
    Compression mode                         : Lossy
    Stream size                              : 97.0 MiB (2%)
    Title                                    : Russian Stereo
    Language                                 : Russian
    Default                                  : Yes
    Alternate group                          : 1
    Encoded date                             : UTC 2016-09-16 16:40:09
    Tagged date                              : UTC 2016-09-16 16:40:57
    Fallback From                            : 4
    Subtitles                                : 6,8
    Audio #2
    ID                                       : 3
    Format                                   : AAC
    Format/Info                              : Advanced Audio Codec
    Format profile                           : LC
    Codec ID                                 : 40
    Duration                                 : 1h 26mn
    Bit rate mode                            : Variable
    Bit rate                                 : 158 Kbps
    Maximum bit rate                         : 237 Kbps
    Channel(s)                               : 2 channels
    Channel positions                        : Front: L R
    Sampling rate                            : 48.0 KHz
    Frame rate                               : 46.875 fps (1024 spf)
    Compression mode                         : Lossy
    Stream size                              : 97.5 MiB (2%)
    Title                                    : English Stereo
    Language                                 : English
    Default                                  : No
    Alternate group                          : 1
    Encoded date                             : UTC 2016-09-16 16:40:09
    Tagged date                              : UTC 2016-09-16 16:40:57
    Fallback From                            : 5
    Subtitles                                : 7,9
    Audio #3
    ID                                       : 4
    Format                                   : AC-3
    Format/Info                              : Audio Coding 3
    Mode extension                           : CM (complete main)
    Format settings, Endianness              : Big
    Codec ID                                 : ac-3
    Duration                                 : 1h 26mn
    Bit rate mode                            : Constant
    Bit rate                                 : 384 Kbps
    Channel(s)                               : 6 channels
    Channel positions                        : Front: L C R, Side: L R, LFE
    Sampling rate                            : 48.0 KHz
    Frame rate                               : 31.250 fps (1536 spf)
    Bit depth                                : 16 bits
    Compression mode                         : Lossy
    Stream size                              : 237 MiB (6%)
    Title                                    : Russian DD 5.1
    Language                                 : Russian
    Default                                  : Inherited From: 2
    Alternate group                          : 1
    Encoded date                             : UTC 2016-09-16 16:40:09
    Tagged date                              : UTC 2016-09-16 16:40:57
    Fallback To                              : 2
    Subtitles                                : 6,8
    Audio #4
    ID                                       : 5
    Format                                   : AC-3
    Format/Info                              : Audio Coding 3
    Mode extension                           : CM (complete main)
    Format settings, Endianness              : Big
    Codec ID                                 : ac-3
    Duration                                 : 1h 26mn
    Bit rate mode                            : Constant
    Bit rate                                 : 640 Kbps
    Channel(s)                               : 6 channels
    Channel positions                        : Front: L C R, Side: L R, LFE
    Sampling rate                            : 48.0 KHz
    Frame rate                               : 31.250 fps (1536 spf)
    Bit depth                                : 16 bits
    Compression mode                         : Lossy
    Stream size                              : 395 MiB (10%)
    Title                                    : English DD 5.1
    Language                                 : English
    Default                                  : No
    Alternate group                          : 1
    Encoded date                             : UTC 2016-09-16 16:40:09
    Tagged date                              : UTC 2016-09-16 16:40:57
    Fallback To                              : 3
    Subtitles                                : 7,9
    Text #1
    ID                                       : 6
    Format                                   : Timed Text
    Muxing mode                              : sbtl
    Codec ID                                 : tx3g
    Duration                                 : 1h 21mn
    Bit rate mode                            : Variable
    Bit rate                                 : 2 bps
    Stream size                              : 1.12 KiB (0%)
    Title                                    : Russian Forced
    Language                                 : Russian
    Default                                  : Yes
    Forced                                   : Yes
    Alternate group                          : 2
    Encoded date                             : UTC 2016-09-16 16:40:09
    Tagged date                              : UTC 2016-09-16 16:40:54
    Subtitles For                            : 2,4
    Full Alternative                         : 8
    Text #2
    ID                                       : 7
    Format                                   : Timed Text
    Muxing mode                              : sbtl
    Codec ID                                 : tx3g
    Duration                                 : 7mn 59s
    Bit rate mode                            : Variable
    Bit rate                                 : 4 bps
    Stream size                              : 243 Bytes (0%)
    Title                                    : English Forced
    Language                                 : English
    Default                                  : No
    Forced                                   : Yes
    Alternate group                          : 2
    Encoded date                             : UTC 2016-09-16 16:40:09
    Tagged date                              : UTC 2016-09-16 16:40:20
    Subtitles For                            : 3,5
    Full Alternative                         : 9
    Text #3
    ID                                       : 8
    Format                                   : Timed Text
    Muxing mode                              : sbtl
    Codec ID                                 : tx3g
    Duration                                 : 1h 21mn
    Bit rate mode                            : Variable
    Bit rate                                 : 30 bps
    Stream size                              : 17.6 KiB (0%)
    Title                                    : Russian Full
    Language                                 : Russian
    Default                                  : No
    Forced                                   : No
    Alternate group                          : 2
    Encoded date                             : UTC 2016-09-16 16:40:09
    Tagged date                              : UTC 2016-09-16 16:40:54
    Subtitles For                            : 2,4
    Forced Alternative                       : 6
    Text #4
    ID                                       : 9
    Format                                   : Timed Text
    Muxing mode                              : sbtl
    Codec ID                                 : tx3g
    Duration                                 : 1h 20mn
    Bit rate mode                            : Variable
    Bit rate                                 : 20 bps
    Stream size                              : 11.9 KiB (0%)
    Title                                    : English Full
    Language                                 : English
    Default                                  : No
    Forced                                   : No
    Alternate group                          : 2
    Encoded date                             : UTC 2016-09-16 16:40:09
    Tagged date                              : UTC 2016-09-16 16:40:54
    Subtitles For                            : 3,5
    Forced Alternative                       : 7
    Menu #1
    00:00:00.000                             : 00:00:00.000
    00:08:09.698                             : 00:08:09.698
    00:15:10.409                             : 00:15:10.409
    00:20:31.939                             : 00:20:31.939
    00:25:45.878                             : 00:25:45.878
    00:30:07.055                             : 00:30:07.055
    00:36:04.120                             : 00:36:04.120
    00:40:39.687                             : 00:40:39.687
    00:45:41.614                             : 00:45:41.614
    00:49:32.219                             : 00:49:32.219
    00:55:57.980                             : 00:55:57.980
    01:01:21.511                             : 01:01:21.511
    01:06:22.562                             : 01:06:22.562
    01:09:57.443                             : 01:09:57.443
    01:13:38.706                             : 01:13:38.706
    01:19:01.487                             : 01:19:01.487
    Menu #2
    ID                                       : 10
    Codec ID                                 : text
    Duration                                 : 1h 26mn
    Language                                 : English
    Encoded date                             : UTC 2016-09-16 16:40:57
    Tagged date                              : UTC 2016-09-16 16:40:57
    Bit rate mode                            : CBR
    Menu For                                 : 1
    00:00:00.000                             : 00:00:00.000
    00:08:09.698                             : 00:08:09.698
    00:15:10.409                             : 00:15:10.409
    00:20:31.939                             : 00:20:31.939
    00:25:45.878                             : 00:25:45.878
    00:30:07.055                             : 00:30:07.055
    00:36:04.120                             : 00:36:04.120
    00:40:39.687                             : 00:40:39.687
    00:45:41.614                             : 00:45:41.614
    00:49:32.219                             : 00:49:32.219
    00:55:57.980                             : 00:55:57.980
    01:01:21.511                             : 01:01:21.511
    01:06:22.562                             : 01:06:22.562
    01:09:57.443                             : 01:09:57.443
    01:13:38.706                             : 01:13:38.706
    01:19:01.487                             : 01:19:01.487

    x264 лог

    x264 [info]: frame I:1105  Avg QP:17.11  size: 82432
    x264 [info]: frame P:56169 Avg QP:20.15  size: 35084
    x264 [info]: frame B:66829 Avg QP:22.54  size: 17467
    x264 [info]: consecutive B-frames:  6.9% 55.5% 25.4% 12.2%
    x264 [info]: mb I  I16..4: 12.3% 52.7% 35.1%
    x264 [info]: mb P  I16..4:  4.3% 14.0%  8.7%  P16..4: 37.0% 20.4%  8.1%  0.0%  0.0%    skip: 7.6%
    x264 [info]: mb B  I16..4:  0.6%  4.0%  3.8%  B16..8: 35.5% 13.6%  3.1%  direct: 5.7%  skip:33.8%  L0:36.5% L1:50.2% BI:13.3%
    x264 [info]: 8x8 transform intra:50.9% inter:51.6%
    x264 [info]: coded y,uvDC,uvAC intra: 81.3% 71.8% 42.2% inter: 30.2% 22.0% 9.2%
    x264 [info]: i16 v,h,dc,p: 23% 29%  4% 44%
    x264 [info]: i8 v,h,dc,ddl,ddr,vr,hd,vl,hu:  5% 14%  3% 10% 15% 12% 18%  9% 14%
    x264 [info]: i4 v,h,dc,ddl,ddr,vr,hd,vl,hu:  5% 16%  2% 10% 16% 12% 18%  8% 12%
    x264 [info]: i8c dc,h,v,p: 49% 25% 15% 12%
    x264 [info]: ref P L0: 76.4% 13.9%  9.7%
    x264 [info]: ref B L0: 85.7% 14.3%
    x264 [info]: kb/s:4990.67

    Скриншоты


    -

    Релиз подготовлен для просмотра на Apple TV, iPad, iPhone, iPod Touch.
    Для просмотра данного релиза на компьютере с ОС Windows рекомендуется использовать VLC media player
    Скачать .torrent

    Скачать торрент-файл бесплатно и на максимальной скорости!

    Как скачивать? · Что такое торрент? · Рейтинг и ограничения

    !ВНИМАНИЕ!
    Сайт не распространяет и не хранит электронные версии произведений, а занимается лишь лишь предоставлением доступа к создаваемому пользователями каталогу ссылок на торрент-файлы, которые содержат только списки хеш-сумм, убедительная просьба с жалобами обращаться напрямую к пользователю. Файлы для обмена на трекере предоставлены пользователями сайта, и администрация не несёт ответственности за их содержание. Просьба не заливать файлы, защищенные авторскими правами, а также файлы нелегального содержания!


    _________________
    [Профиль] [ЛС]
    Показать сообщения:    
    Ответить на тему

    Текущее время: Сегодня, в 16:37

    Часовой пояс: GMT + 2



    Вы не можете начинать темы
    Вы не можете отвечать на сообщения
    Вы не можете редактировать свои сообщения
    Вы не можете удалять свои сообщения
    Вы не можете голосовать в опросах
    Вы не можете прикреплять файлы к сообщениям
    Вы не можете скачивать файлы