BitTorrentTracker PerecTracker.org
BitTorrentTracker PerecTracker.org
    
Регистрация  ·  Вход
 
 · 
Забыли пароль?

  • Фото на недобрую память (Алина Чеботарёва) [2016, криминальный фильм, мелодрама, SATRip]

    Ответить на тему
     
    Автор Сообщение

    Flirldrerve

    Создавать темы 16-Сен-2016 20:31

           

    [Цитировать]

    Фото на недобрую память
    Жанр: криминальный фильм, мелодрама
    Год выпуска: 2016
    Продолжительность: 01:36:20
    Режиссёр: Алина Чеботарёва
    В ролях: Александр Давыдов, Ирина Таранник, Тимофей Каратаев, Виктория Литвиненко-Ясиновская
    Описание: Молодая девушка Маша безумно влюблена в своего однокурсника Игоря. Она давно ждёт момента, когда сможет стать его женой. Игорь тоже её любит, однако свадьба пока не входит в его планы. Сожалея о нерешительности возлюбленного, девушка пытается заставить его ревновать. Для этого она убеждает другого парня стать её подставным женихом. Мнимый соперник Игоря вместе с Машей отправляется в ЗАГС и подаёт заявление для регистрации брака. Затея, кажется, наконец увенчалась успехом: узнав о произошедшем, разочарованный Игорь всячески стремится вернуть любимую. Но осуществлению задумки мешает событие, не запланированное заранее и совершенно непредсказуемое: девушка и её новый компаньон влюбляются друг в друга...
    Доп. информация: реклама отсутствует, есть украинские субтитры
    Производство: кинокомпания "Star Media"

    Релиз группа
    Все раздачи фильма: Фото на недобрую память

    Качество видео: SATRip
    Формат видео: AVI
    Видео: XviD, 720х400 (1,8:1), 25 кадр/с, ~1832 Кбит/сек, 0,254 bit/pixel
    Аудио: АС3, 48 kHz, 2 (L, R) ch, 192 Кбит/с

    MediaInfo

    Общее
    Полное имя                               : F:\Video\Foto.na.nedobruju.pamiat.2016.SATRip.Files-x.avi
    Формат                                   : AVI
    Формат/Информация                        : Audio Video Interleave
    Размер файла                             : 1,37 Гбайт
    Продолжительность                        : 1 ч. 36 м.
    Общий поток                              : 2034 Кбит/сек
    Программа кодирования                    : VirtualDubModRus 1.5.10.2 (build 2542/release)
    Библиотека кодирования                   : VirtualDubMod build 2542/release
    Видео
    Идентификатор                            : 0
    Формат                                   : MPEG-4 Visual
    Профиль формата                          : Advanced Simple@L5
    Параметр BVOP формата                    : 1
    Параметр QPel формата                    : Нет
    Параметр GMC формата                     : Без точки перехода
    Параметр матрицы формата                 : Выборочная
    Идентификатор кодека                     : XVID
    Идентификатор кодека/Подсказка           : XviD
    Продолжительность                        : 1 ч. 36 м.
    Битрейт                                  : 1832 Кбит/сек
    Ширина                                   : 720 пикселей
    Высота                                   : 400 пикселей
    Соотношение сторон                       : 16:9
    Частота кадров                           : 25,000 кадров/сек
    Цветовое пространство                    : YUV
    Субдискретизация насыщенности            : 4:2:0
    Битовая глубина                          : 8 бит
    Тип развёртки                            : Прогрессивная
    Метод сжатия                             : С потерями
    Бит/(Пиксели*Кадры)                      : 0.254
    Размер потока                            : 1,23 Гбайт (90%)
    Библиотека кодирования                   : XviD 73
    Аудио
    Идентификатор                            : 1
    Формат                                   : AC-3
    Формат/Информация                        : Audio Coding 3
    Расширение режима                        : CM (complete main)
    Параметр Endianness формата              : Big
    Идентификатор кодека                     : 2000
    Продолжительность                        : 1 ч. 36 м.
    Вид битрейта                             : Постоянный
    Битрейт                                  : 192 Кбит/сек
    Каналы                                   : 2 канала
    Расположение каналов                     : Front: L R
    Частота                                  : 48,0 КГц
    Битовая глубина                          : 16 бит
    Метод сжатия                             : С потерями
    Размер потока                            : 132 Мбайт (9%)
    Выравнивание                             : Разделение по промежуткам
    Продолжительность промежутка             : 40  мс. (1,00 видеокадр)
    Время предзагрузки промежутка            : 500  мс.

    Скриншот с названием фильма

    Скриншоты

    Скачать .torrent

    Скачать торрент-файл бесплатно и на максимальной скорости!

    Как скачивать? · Что такое торрент? · Рейтинг и ограничения

    !ВНИМАНИЕ!
    Сайт не распространяет и не хранит электронные версии произведений, а занимается лишь лишь предоставлением доступа к создаваемому пользователями каталогу ссылок на торрент-файлы, которые содержат только списки хеш-сумм, убедительная просьба с жалобами обращаться напрямую к пользователю. Файлы для обмена на трекере предоставлены пользователями сайта, и администрация не несёт ответственности за их содержание. Просьба не заливать файлы, защищенные авторскими правами, а также файлы нелегального содержания!


    _________________
    [Профиль] [ЛС]
    Показать сообщения:    
    Ответить на тему

    Текущее время: Сегодня, в 04:22

    Часовой пояс: GMT + 2



    Вы не можете начинать темы
    Вы не можете отвечать на сообщения
    Вы не можете редактировать свои сообщения
    Вы не можете удалять свои сообщения
    Вы не можете голосовать в опросах
    Вы не можете прикреплять файлы к сообщениям
    Вы не можете скачивать файлы