Register  ·  Log in
Forgot password?

  • Тайна трех океанов [19/03/2014, Документальный, SATRip]

    Reply to topic
    Author Message


    Post 19-Mar-2014 22:01



    Тайна трех океанов
    Дата/Год выпуска: 19/03/2014
    Страна: Россмя
    Жанр: Документальный
    Продолжительность: 00:53:46
    Перевод: Не требуется
    Телеканал: Россия
    Описание: Фильм "Тайна трех океанов" основан на документах, рассекреченных только в XXI веке. Автор и ведущий фильма Сергей Брилев расскажет о героической советской подлодке С-56, которая совершила уникальный, труднейший и опаснейший для своего времени переход с Тихоокеанского (из Владивостока) на Северный флот (в Мурманск) в 1942-1943 годах, покрыв более семнадцати тысяч морских миль через три океана и десять морей.
    качество: SATRip
    формат: AVI
    Видео: DivX 6.9.2 720x400 25.00fps 1800kbps
    Аудио: MPEG Audio Layer 3 48000Hz stereo 192kbps


    I:\Тайна трех океанов\Tayna.Treh.Okeanov.SATRip.avi General Complete name : I:\Тайна трех океанов\Tayna.Treh.Okeanov.SATRip.avi Format : AVI Format/Info : Audio Video Interleave File size : 763 MiB Duration : 53mn 15s Overall bit rate : 2 003 Kbps Writing library : VirtualDub build 35491/release Video #0 ID : 0 Format : MPEG-4 Visual Format settings, BVOP : 1 Format settings, QPel : No Format settings, GMC : No warppoints Format settings, Matrix : Default (H.263) Muxing mode : Packed bitstream Codec ID : DX50 Codec ID/Hint : DivX 5 Duration : 53mn 15s Bit rate : 1 802 Kbps Width : 720 pixels Height : 400 pixels Display aspect ratio : 16:9 Frame rate : 25.000 fps Color space : YUV Chroma subsampling : 4:2:0 Bit depth : 8 bits Scan type : Progressive Compression mode : Lossy Bits/(Pixel*Frame) : 0.250 Stream size : 686 MiB (90%) Writing library : DivX 6.8.5 (UTC 2009-08-20) Audio #1 ID : 1 Format : MPEG Audio Format version : Version 1 Format profile : Layer 3 Mode : Joint stereo Mode extension : MS Stereo Codec ID : 55 Codec ID/Hint : MP3 Duration : 53mn 15s Bit rate mode : Constant Bit rate : 192 Kbps Channel count : 2 channels Sampling rate : 48.0 KHz Compression mode : Lossy Stream size : 73.1 MiB (10%) Alignment : Split accross interleaves Interleave, duration : 40 ms (1.00 video frame) Interleave, preload duration : 500 ms


    Download .torrent

    Download free and at maximum speed!

    How to Download? · What is a torrent? · Ratings and Limitations

    The site does not extend and does not store electronic(digital) versions of products, and only gives access to a reference catalogue created by users on torrent-files which contain only lists of the hash-sums, the earnest entreaty, with complaints(abuse) to access directly to the user. Files for an exchange on tracker are given by users of a site, and the administration does not bear the responsibility for their maintenance. The request to not fill in the files protected by copyrights, and also files of the illegal maintenance!

    [Profile] [PM]
    Display posts from previous:    
    Reply to topic

    The time now is: Today 02:48

    All times are GMT + 3 Hours

    You cannot post new topics in this forum
    You cannot reply to topics in this forum
    You cannot edit your posts in this forum
    You cannot delete your posts in this forum
    You cannot vote in polls in this forum
    You cannot attach files in this forum
    You cannot download files in this forum