Register  ·  Log in
Forgot password?

  • Самый крутой день / Der geilste Tag (Флориан Давид Фиц / Florian David Fitz) [2016, Германия, комедия, драма, HDRip] MVO (ViruseProject)

    Reply to topic
    Author Message


    Post 15-Sep-2016 11:55



    Самый крутой день / Der geilste Tag
    Год выпуска: 2016
    Страна: Германия
    Жанр: комедия, драма
    Продолжительность: 01:53:49
    Перевод: Любительский (многоголосый закадровый) ViruseProject
    Субтитры: нет
    Режиссёр: Флориан Давид Фиц / Florian David Fitz
    В ролях: Маттиас Швайгхёфер, Флориан Давид Фиц, Райнер Бок, Александра Мария Лара и др.
    Описание: Анди (Маттиас Швайгхефер) и Бенно (Флориан Давид Фитц) объединяет только одно: они оба скоро умрут. Они решают взять в банке крупный кредит, который им никогда не придется возвращать, и напоследок отправиться на поиски "самого крутого дня" в их жизни. После тысяч километров, на другом конце света они, наконец, узнают, что реальная цель их поездки было несколько иной...
    Релиз без рекламы.

    скачать СЕМПЛ с multi-up
    Качество: HDRip
    Формат: AVI
    Видео кодек: XviD
    Аудио кодек: AC3
    Видео: 720x304 (2.37:1), 23.976 fps, XviD build 50 ~1646 kbps avg, 0.31 bit/pixel
    Аудио: 48 kHz, AC3 Dolby Digital, 2/0 (L,R) ch, ~192 kbps


    Complete name : D:\ОЗВУЧКА\ФИЛЬМЫ\Der.geilste.tag.2016\4002\Der.geilste.tag.2016.ViruseProject.avi
    Format : AVI
    Format/Info : Audio Video Interleave
    File size : 1.46 GiB
    Duration : 1 h 53 min
    Overall bit rate : 1 848 kb/s
    Writing application : VirtualDubMod (build 2540/release)
    Writing library : VirtualDub build 35491/release
    ID : 0
    Format : MPEG-4 Visual
    Format profile : Advanced Simple@L5
    Format settings, BVOP : 1
    Format settings, QPel : No
    Format settings, GMC : No warppoints
    Format settings, Matrix : Default (MPEG)
    Codec ID : XVID
    Codec ID/Hint : XviD
    Duration : 1 h 53 min
    Bit rate : 1 647 kb/s
    Width : 720 pixels
    Height : 304 pixels
    Display aspect ratio : 2.35:1
    Frame rate : 23.976 (23976/1000) FPS
    Color space : YUV
    Chroma subsampling : 4:2:0
    Bit depth : 8 bits
    Scan type : Progressive
    Compression mode : Lossy
    Bits/(Pixel*Frame) : 0.314
    Stream size : 1.30 GiB (89%)
    Writing library : XviD 1.2.1 (UTC 2008-12-04)
    ID : 1
    Format : AC-3
    Format/Info : Audio Coding 3
    Mode extension : CM (complete main)
    Format settings, Endianness : Big
    Codec ID : 2000
    Duration : 1 h 53 min
    Bit rate mode : Constant
    Bit rate : 192 kb/s
    Channel(s) : 2 channels
    Channel positions : Front: L R
    Sampling rate : 48.0 kHz
    Frame rate : 31.250 FPS (1536 spf)
    Compression mode : Lossy
    Stream size : 156 MiB (10%)
    Alignment : Aligned on interleaves
    Interleave, duration : 42 ms (1.00 video frame)
    Interleave, preload duratio : 512 ms


    Download .torrent

    Download free and at maximum speed!

    How to Download? · What is a torrent? · Ratings and Limitations

    The site does not extend and does not store electronic(digital) versions of products, and only gives access to a reference catalogue created by users on torrent-files which contain only lists of the hash-sums, the earnest entreaty, with complaints(abuse) to access directly to the user. Files for an exchange on tracker are given by users of a site, and the administration does not bear the responsibility for their maintenance. The request to not fill in the files protected by copyrights, and also files of the illegal maintenance!

    [Profile] [PM]
    Display posts from previous:    
    Reply to topic

    The time now is: Today 16:26

    All times are GMT + 3 Hours

    You cannot post new topics in this forum
    You cannot reply to topics in this forum
    You cannot edit your posts in this forum
    You cannot delete your posts in this forum
    You cannot vote in polls in this forum
    You cannot attach files in this forum
    You cannot download files in this forum