BitTorrentTracker PerecTracker.org
BitTorrentTracker PerecTracker.org
    
Регистрация  ·  Вход
 
 · 
Забыли пароль?

  • Я не серийный убийца / I Am Not a Serial Killer (Билли О`Брайэн / Billy O\'Brien) [2016, Ирландия, Великобритания, триллер, WEB-DLRip] MVO (RATTLEBOX)

    Ответить на тему
     
    Автор Сообщение

    rechyn

    Создавать темы 15-Сен-2016 06:43

           

    [Цитировать]

    Я не серийный убийца / I Am Not a Serial Killer
    Страна: Ирландия, Великобритания
    Жанр: Триллер, экранизация
    Год выпуска: 2016
    Продолжительность: 01:43:22
    Перевод: Любительский (многоголосый закадровый) RATTLEBOX
    Cубтитры: нет
    Оригинальная аудиодорожка: нет
    Режиссер: Билли О`Брайэн / Billy O'Brien
    В ролях: Кристофер Ллойд, Лора Фрейзер, Макс Рекордс, Карл Джиари, Брюс Боне, Эммилу Барден, Райан Дж. Гилмер, Тим Расселл
    Описание: 15-летний Джон Уэйн Кливер живёт с разведённой матерью и старшей сестрой. Он помогает маме работать в морге (его мать патологоанатом). В свободное время он страдает от преследующих его психопатических мыслей, в которых хочет убивать людей. Даже психолог доктор Неблин, к которому Джон ходит еженедельно, не может ему помочь. Вскоре в городе объявляется серийный убийца, который убивает мужчин и вынимает из них органы.
    Сэмпл: http://multi-up.com/1117911
    Качество видео: WEB-DLRip / WEB-DL 1080р
    Формат видео: AVI
    Видео: 720x400 (1.80:1), 23.976 fps, XviD build 65 ~1565 kbps avg, 0.23 bit/pixel
    Аудио RUS: 48 kHz, AC3 Dolby Digital, 3/2 (L,C,R,l,r) + LFE ch, ~448 kbps
    Rip by Ториял

    MediaInfo

    Format : AVI
    Format/Info : Audio Video Interleave
    File size : 1.46 GiB
    Duration : 1h 43mn
    Overall bit rate : 2 023 Kbps
    Writing application : VirtualDubMod 1.5.10.3 | www.virtualdub-fr.org || (build 2550/release)
    Writing library : VirtualDubMod build 2550/release
    Video
    ID : 0
    Format : MPEG-4 Visual
    Format profile : Advanced Simple@L5
    Format settings, BVOP : 1
    Format settings, QPel : No
    Format settings, GMC : No warppoints
    Format settings, Matrix : Custom
    Codec ID : XVID
    Codec ID/Hint : XviD
    Duration : 1h 43mn
    Bit rate : 1 565 Kbps
    Width : 720 pixels
    Height : 400 pixels
    Display aspect ratio : 16:9
    Frame rate : 23.976 (23976/1000) fps
    Color space : YUV
    Chroma subsampling : 4:2:0
    Bit depth : 8 bits
    Scan type : Progressive
    Compression mode : Lossy
    Bits/(Pixel*Frame) : 0.227
    Stream size : 1.13 GiB (77%)
    Writing library : XviD 65
    Audio
    ID : 1
    Format : AC-3
    Format/Info : Audio Coding 3
    Mode extension : CM (complete main)
    Format settings, Endianness : Big
    Codec ID : 2000
    Duration : 1h 43mn
    Bit rate mode : Constant
    Bit rate : 448 Kbps
    Channel(s) : 6 channels
    Channel positions : Front: L C R, Side: L R, LFE
    Sampling rate : 48.0 KHz
    Frame rate : 31.250 fps (1536 spf)
    Compression mode : Lossy
    Stream size : 331 MiB (22%)
    Alignment : Split accross interleaves
    Interleave, duration : 42 ms (1.00 video frame)
    Interleave, preload duratio : 500 ms

    Скриншоты

    Скачать .torrent

    Скачать торрент-файл бесплатно и на максимальной скорости!

    Как скачивать? · Что такое торрент? · Рейтинг и ограничения

    !ВНИМАНИЕ!
    Сайт не распространяет и не хранит электронные версии произведений, а занимается лишь лишь предоставлением доступа к создаваемому пользователями каталогу ссылок на торрент-файлы, которые содержат только списки хеш-сумм, убедительная просьба с жалобами обращаться напрямую к пользователю. Файлы для обмена на трекере предоставлены пользователями сайта, и администрация не несёт ответственности за их содержание. Просьба не заливать файлы, защищенные авторскими правами, а также файлы нелегального содержания!


    _________________
    [Профиль] [ЛС]
    Показать сообщения:    
    Ответить на тему

    Текущее время: Сегодня, в 02:52

    Часовой пояс: GMT + 2



    Вы не можете начинать темы
    Вы не можете отвечать на сообщения
    Вы не можете редактировать свои сообщения
    Вы не можете удалять свои сообщения
    Вы не можете голосовать в опросах
    Вы не можете прикреплять файлы к сообщениям
    Вы не можете скачивать файлы