BitTorrentTracker PerecTracker.org
BitTorrentTracker PerecTracker.org
    
Регистрация  ·  Вход
 
 · 
Забыли пароль?

  • Американский герой / American hero (Ник Лав / Nick Love) [2015, США, Фантастика, боевик, комедия, HDRip] DVO

    Ответить на тему
     
    Автор Сообщение

    Light

    Создавать темы 15-Сен-2016 06:43

           

    [Цитировать]

    Американский герой / American hero
    Страна: США
    Жанр: Мелодрама, приключения, комедия
    Год выпуска: 2015
    Продолжительность: 01:26:16
    Перевод: Любительский (двухголосый закадровый) автор перевода - Андрей Глинский
    Cубтитры: нет
    Режиссер: Ник Лав / Nick Love
    В ролях: Стивен Дорфф, Эдди Гриффин, Bill Billions, Jonathan Billions, Андреа Коэн, Луис Да Силва мл., Кина Фергюсон, Рэден Грир, Грэйсон Килпэтрик, Йоханс Майлс
    Описание: Мелвну достался очень странный жизненный лотерейный билет. Дело в том, что парень становится супергероем и получает некоторые обязанности, но всё это происходит без соглашения самого Мелвина. Каждый день парень получает лёгкие деньги и возможность тратить их на наркотики, а также другие развлечения. Мелвин считает себя потрясающим красавчиком и благодаря этому привлекает внимание множества красоток. Единственной проблемой парня являются его ужасные отношения с сыном. Однажды Мелвин остановится и задумается над смыслом всей своей жизни. Парень осознает, что пришла пора работать над своим настоящим счастьем, а все силы сконцентрировать на единственном нужном человеке мире. Главным человечком для Мелвина становится его сынишка, а основной целью – получить его прощение и доверие.
    Сэмпл: http://multi-up.com/1117894
    Качество видео: HDRip (Исходник American Hero (2015) BDRip 720p mkv)
    Формат видео: AVI
    Видео: XviD, 688x368, (1,85:1), 23,976 fps, 1070 Кбит/с, 8 бит
    Аудио: Русский (MP3, 2 ch, 48,0 KHz, 128 Kbps)

    MediaInfo

    Общее
    Полное имя : F:\Видеофильмы\В и д е о\Американский герой (боевик, фантастика 2015 год).avi
    Формат : AVI
    Формат/Информация : Audio Video Interleave
    Размер файла : 745 Мбайт
    Продолжительность : 1 ч. 26 м.
    Общий поток : 1208 Кбит/сек
    Программа кодирования : VirtualDubMod 1.5.10.3 | www.virtualdub-fr.org || (build 2550/release)
    Библиотека кодирования : VirtualDubMod build 2550/release
    Видео
    Идентификатор : 0
    Формат : MPEG-4 Visual
    Профиль формата : Advanced Simple@L5
    Параметр BVOP формата : 2
    Параметр QPel формата : Нет
    Параметр GMC формата : Без точки перехода
    Параметр матрицы формата : Выборочная
    Идентификатор кодека : XVID
    Идентификатор кодека/Подсказка : XviD
    Продолжительность : 1 ч. 26 м.
    Битрейт : 1070 Кбит/сек
    Ширина : 688 пикселей
    Высота : 368 пикселей
    Соотношение сторон : 1,85:1
    Частота кадров : 23,976 (23976/1000) кадра/сек
    Цветовое пространство : YUV
    Субдискретизация насыщенности : 4:2:0
    Битовая глубина : 8 бит
    Тип развёртки : Прогрессивная
    Метод сжатия : С потерями
    Бит/(Пиксели*Кадры) : 0.176
    Размер потока : 660 Мбайт (89%)
    Библиотека кодирования : XviD 1.2.1 (UTC 2008-12-04)
    Аудио
    Идентификатор : 1
    Формат : MPEG Audio
    Версия формата : Version 1
    Профиль формата : Layer 3
    Идентификатор кодека : 55
    Идентификатор кодека/Подсказка : MP3
    Продолжительность : 1 ч. 26 м.
    Вид битрейта : Постоянный
    Битрейт : 128 Кбит/сек
    Каналы : 2 канала
    Частота : 48,0 КГц
    Метод сжатия : С потерями
    Размер потока : 79,0 Мбайт (11%)
    Выравнивание : Соединение по промежуткам
    Продолжительность промежутка : 42 мс. (1,00 видеокадр)
    Время предзагрузки промежутка : 504 мс.
    Библиотека кодирования : LAME3.97
    Настройки программы : -m s -V 4 -q 2 -lowpass 17 -b 128

    Скриншот c названием фильма

    Скриншоты

    Скачать .torrent

    Скачать торрент-файл бесплатно и на максимальной скорости!

    Как скачивать? · Что такое торрент? · Рейтинг и ограничения

    !ВНИМАНИЕ!
    Сайт не распространяет и не хранит электронные версии произведений, а занимается лишь лишь предоставлением доступа к создаваемому пользователями каталогу ссылок на торрент-файлы, которые содержат только списки хеш-сумм, убедительная просьба с жалобами обращаться напрямую к пользователю. Файлы для обмена на трекере предоставлены пользователями сайта, и администрация не несёт ответственности за их содержание. Просьба не заливать файлы, защищенные авторскими правами, а также файлы нелегального содержания!


    _________________
    [Профиль] [ЛС]
    Показать сообщения:    
    Ответить на тему

    Текущее время: Сегодня, в 05:54

    Часовой пояс: GMT + 2



    Вы не можете начинать темы
    Вы не можете отвечать на сообщения
    Вы не можете редактировать свои сообщения
    Вы не можете удалять свои сообщения
    Вы не можете голосовать в опросах
    Вы не можете прикреплять файлы к сообщениям
    Вы не можете скачивать файлы