BitTorrentTracker PerecTracker.org
BitTorrentTracker PerecTracker.org
    
Регистрация  ·  Вход
 
 · 
Забыли пароль?

  • Грань будущего / Edge of Tomorrow (Даг Лайман / Doug Liman) [2014, США, боевик, BDRip-AVC] Dub + 3х AVO (Сербин, Горчаков, Володарский) + Sub Rus, Eng + Original Eng

    Ответить на тему
     
    Автор Сообщение

    Light

    Создавать темы 15-Сен-2016 06:43

           

    [Цитировать]

    Грань будущего / Edge of Tomorrow
    Страна: США
    Жанр: боевик
    Год выпуска: 2014
    Продолжительность: 01:53:29
    Перевод 1: Профессиональный (дублированный)
    Перевод 2: Авторский (одноголосый закадровый) Сербин
    Перевод 3: Авторский (одноголосый закадровый) Горчаков
    Перевод 4: Авторский (одноголосый закадровый) Володарский
    Cубтитры: русские (полные, только на экранные тексты), английские (полные, SDH)
    Оригинальная аудиодорожка: английский
    Режиссер: Даг Лайман / Doug Liman
    В ролях: Том Круз, Эмили Блант, Брендан, Глисон Билл Пэкстон, Джонас Армстронг, Тони Вэй, Кик Гарри, Франц Драмех, Драгомир Мрсич, Шарлотта Райли
    Описание: В недалёком будущем раса инопланетян вторгается на Землю. Никакая армия в мире не может противостоять им. Майор Уильям Кейдж умирает в бою, но случается невозможное — он оказывается во временной петле. Раз за разом он попадает в один и тот же бой, сражается и умирает… снова и снова. И каждое повторяющееся сражение приближает его к разгадке того, как победить врага.
    Доп. информация: Источник http://perectracker.org/http://perectracker.org/viewtopic.php?t=4862005
    Сэмпл: https://www.sendspace.com/file/udsgd1
    Качество видео: BDRip-AVC
    Формат видео: MKV
    Видео: 1152x480 (2,40:1), 23,976 fps, AVC (H.264) ~4500 kbps avg, 0.339 bit/pixel
    Аудио 1: Russian, AC3, 6ch, 48 kHz, 448 kbps (дубляж)
    Аудио 2: Russian, AC3, 6ch, 48 kHz, 384 kbps (авторский, Сербин)
    Аудио 3: Russian, AC3, 6ch, 48 kHz, 384 kbps (авторский, Горчаков)
    Аудио 4: Russian, AC3, 6ch, 48 kHz, 384 kbps (авторский, Володарский) (отдельно)
    Аудио 5: English, AC3, 6ch, 48 kHz, 448 kbps (оригинал) (отдельно)

    MediaInfo

    Общее
    Полное имя : D:\КИНО\Грань будущего\_eng_full.srt
    Формат : SubRip
    Размер файла : 99,6 Кбайт
    Текст
    Формат : SubRip
    Метод сжатия : Без потерь
    Общее
    Полное имя : D:\КИНО\Грань будущего\_eng_sdh.srt
    Формат : SubRip
    Размер файла : 99,8 Кбайт
    Текст
    Формат : SubRip
    Метод сжатия : Без потерь
    Общее
    Полное имя : D:\КИНО\Грань будущего\_rus_full.srt
    Формат : SubRip
    Размер файла : 124 Кбайт
    Текст
    Формат : SubRip
    Метод сжатия : Без потерь
    Общее
    Полное имя : D:\КИНО\Грань будущего\_володарский.ac3
    Формат : AC-3
    Формат/Информация : Audio Coding 3
    Размер файла : 312 Мбайт
    Продолжительность : 1 ч. 53 м.
    Режим общего битрейта : Постоянный
    Общий поток : 384 Кбит/сек
    Аудио
    Формат : AC-3
    Формат/Информация : Audio Coding 3
    Расширение режима : CM (complete main)
    Параметр Endianness формата : Big
    Продолжительность : 1 ч. 53 м.
    Вид битрейта : Постоянный
    Битрейт : 384 Кбит/сек
    Каналы : 6 каналов
    Расположение каналов : Front: L C R, Side: L R, LFE
    Частота : 48,0 КГц
    Битовая глубина : 16 бит
    Метод сжатия : С потерями
    Размер потока : 312 Мбайт (100%)
    Общее
    Полное имя : D:\КИНО\Грань будущего\_оригинал_eng.ac3
    Формат : AC-3
    Формат/Информация : Audio Coding 3
    Размер файла : 364 Мбайт
    Продолжительность : 1 ч. 53 м.
    Режим общего битрейта : Постоянный
    Общий поток : 448 Кбит/сек
    Аудио
    Формат : AC-3
    Формат/Информация : Audio Coding 3
    Расширение режима : CM (complete main)
    Параметр Endianness формата : Big
    Продолжительность : 1 ч. 53 м.
    Вид битрейта : Постоянный
    Битрейт : 448 Кбит/сек
    Каналы : 6 каналов
    Расположение каналов : Front: L C R, Side: L R, LFE
    Частота : 48,0 КГц
    Битовая глубина : 16 бит
    Метод сжатия : С потерями
    Размер потока : 364 Мбайт (100%)
    Общее
    Уникальный идентификатор : 251628838837540164779382014802934960630 (0xBD4DF3995C8B8DC28A731A4913AD11F6)
    Полное имя : D:\КИНО\Грань будущего\Грань будущего.mkv
    Формат : Matroska
    Версия формата : Version 4 / Version 2
    Размер файла : 4,53 Гбайт
    Продолжительность : 1 ч. 53 м.
    Общий поток : 5717 Кбит/сек
    Дата кодирования : UTC 2016-09-13 17:58:32
    Программа кодирования : mkvmerge v9.2.0 ('Photograph') 32bit
    Библиотека кодирования : libebml v1.3.3 + libmatroska v1.4.4
    DURATION : 01:51:28.355000000
    NUMBER_OF_FRAMES : 20
    NUMBER_OF_BYTES : 914
    _STATISTICS_WRITING_APP : mkvmerge v9.2.0 ('Photograph') 32bit
    _STATISTICS_WRITING_DATE_UTC : 2016-09-13 17:58:32
    _STATISTICS_TAGS : BPS DURATION NUMBER_OF_FRAMES NUMBER_OF_BYTES
    Видео
    Идентификатор : 1
    Формат : AVC
    Формат/Информация : Advanced Video Codec
    Профиль формата : High@L4.1
    Параметр CABAC формата : Да
    Параметр ReFrames формата : 15 кадров
    Идентификатор кодека : V_MPEG4/ISO/AVC
    Продолжительность : 1 ч. 53 м.
    Битрейт : 4500 Кбит/сек
    Ширина : 1152 пикселя
    Высота : 480 пикселей
    Соотношение сторон : 2,40:1
    Режим частоты кадров : Постоянный
    Частота кадров : 23,976 кадра/сек
    Цветовое пространство : YUV
    Субдискретизация насыщенности : 4:2:0
    Битовая глубина : 8 бит
    Тип развёртки : Прогрессивная
    Бит/(Пиксели*Кадры) : 0.339
    Размер потока : 3,48 Гбайт (77%)
    Библиотека кодирования : x264 core 148 r2638 7599210
    Настройки программы : cabac=1 / ref=15 / deblock=1:-2:-1 / analyse=0x3:0x133 / me=umh / subme=10 / psy=1 / psy_rd=1.00:0.10 / mixed_ref=1 / me_range=32 / chroma_me=1 / trellis=2 / 8x8dct=1 / cqm=0 / deadzone=21,11 / fast_pskip=0 / chroma_qp_offset=-3 / threads=6 / lookahead_threads=1 / sliced_threads=0 / nr=0 / decimate=1 / interlaced=0 / bluray_compat=0 / constrained_intra=0 / bframes=10 / b_pyramid=2 / b_adapt=2 / b_bias=0 / direct=3 / weightb=1 / open_gop=0 / weightp=2 / keyint=240 / keyint_min=23 / scenecut=40 / intra_refresh=0 / rc_lookahead=60 / rc=2pass / mbtree=1 / bitrate=4500 / ratetol=1.0 / qcomp=0.60 / qpmin=10 / qpmax=51 / qpstep=4 / cplxblur=20.0 / qblur=0.5 / vbv_maxrate=62500 / vbv_bufsize=78125 / nal_hrd=none / filler=0 / ip_ratio=1.40 / aq=1:1.00
    Default : Да
    Forced : Нет
    Аудио #1
    Идентификатор : 2
    Формат : AC-3
    Формат/Информация : Audio Coding 3
    Расширение режима : CM (complete main)
    Параметр Endianness формата : Big
    Идентификатор кодека : A_AC3
    Продолжительность : 1 ч. 53 м.
    Вид битрейта : Постоянный
    Битрейт : 448 Кбит/сек
    Каналы : 6 каналов
    Расположение каналов : Front: L C R, Side: L R, LFE
    Частота : 48,0 КГц
    Битовая глубина : 16 бит
    Метод сжатия : С потерями
    Размер потока : 364 Мбайт (8%)
    Заголовок : дубляж
    Язык : Russian
    Default : Да
    Forced : Нет
    Аудио #2
    Идентификатор : 3
    Формат : AC-3
    Формат/Информация : Audio Coding 3
    Расширение режима : CM (complete main)
    Параметр Endianness формата : Big
    Идентификатор кодека : A_AC3
    Продолжительность : 1 ч. 53 м.
    Вид битрейта : Постоянный
    Битрейт : 384 Кбит/сек
    Каналы : 6 каналов
    Расположение каналов : Front: L C R, Side: L R, LFE
    Частота : 48,0 КГц
    Битовая глубина : 16 бит
    Метод сжатия : С потерями
    Размер потока : 312 Мбайт (7%)
    Заголовок : Сербин
    Язык : Russian
    Default : Нет
    Forced : Нет
    Аудио #3
    Идентификатор : 4
    Формат : AC-3
    Формат/Информация : Audio Coding 3
    Расширение режима : CM (complete main)
    Параметр Endianness формата : Big
    Идентификатор кодека : A_AC3
    Продолжительность : 1 ч. 53 м.
    Вид битрейта : Постоянный
    Битрейт : 384 Кбит/сек
    Каналы : 6 каналов
    Расположение каналов : Front: L C R, Side: L R, LFE
    Частота : 48,0 КГц
    Битовая глубина : 16 бит
    Метод сжатия : С потерями
    Размер потока : 312 Мбайт (7%)
    Заголовок : Горчаков
    Язык : Russian
    Default : Нет
    Forced : Нет
    Текст
    Идентификатор : 5
    Формат : UTF-8
    Идентификатор кодека : S_TEXT/UTF8
    Идентификатор кодека/Информация : UTF-8 Plain Text
    Заголовок : форсированные
    Язык : Russian
    Default : Да
    Forced : Да
    Меню
    00:00:00.000 : en:Chapter 01
    00:10:28.168 : en:Chapter 02
    00:17:39.098 : en:Chapter 03
    00:24:50.196 : en:Chapter 04
    00:35:57.947 : en:Chapter 05
    00:46:27.284 : en:Chapter 06
    00:54:34.771 : en:Chapter 07
    01:04:59.561 : en:Chapter 08
    01:12:53.077 : en:Chapter 09
    01:23:08.899 : en:Chapter 10
    01:32:34.131 : en:Chapter 11
    01:42:53.583 : en:Chapter 12
    01:45:46.213 : en:Chapter 13

    Скриншот c названием фильма

    Скриншоты

    лог

    ---[Information] [13.09.2016 2:09:16] avs [info]: 1152x480p 1:1 @ 24000/1001 fps (cfr)
    ---[Information] [13.09.2016 2:09:16] x264 [info]: using SAR=1/1
    ---[Information] [13.09.2016 2:09:16] x264 [info]: using cpu capabilities: MMX2 SSE2Fast SSSE3 SSE4.2 AVX FMA3 AVX2 LZCNT BMI2
    ---[Information] [13.09.2016 2:09:16] x264 [info]: profile High, level 4.1
    ---[Information] [13.09.2016 20:19:21] x264 [info]: frame I:1208 Avg QP:13.24 size:105691
    ---[Information] [13.09.2016 20:19:21] x264 [info]: frame P:43189 Avg QP:16.16 size: 42166
    ---[Information] [13.09.2016 20:19:21] x264 [info]: frame B:118867 Avg QP:18.21 size: 15819
    ---[Information] [13.09.2016 20:19:21] x264 [info]: consecutive B-frames: 5.2% 6.5% 11.6% 26.1% 14.4% 23.1% 4.7% 3.9% 1.8% 1.0% 1.6%
    ---[Information] [13.09.2016 20:19:21] x264 [info]: mb I I16..4: 13.8% 60.7% 25.5%
    ---[Information] [13.09.2016 20:19:21] x264 [info]: mb P I16..4: 1.3% 19.9% 2.9% P16..4: 29.5% 24.0% 16.4% 1.5% 0.6% skip: 3.9%
    ---[Information] [13.09.2016 20:19:21] x264 [info]: mb B I16..4: 0.1% 3.0% 0.4% B16..8: 38.9% 17.5% 5.5% direct: 7.5% skip:27.1% L0:42.5% L1:43.0% BI:14.4%
    ---[Information] [13.09.2016 20:19:21] x264 [info]: 8x8 transform intra:81.5% inter:55.6%
    ---[Information] [13.09.2016 20:19:21] x264 [info]: direct mvs spatial:97.2% temporal:2.8%
    ---[Information] [13.09.2016 20:19:21] x264 [info]: coded y,uvDC,uvAC intra: 94.5% 87.9% 69.9% inter: 37.5% 24.4% 7.9%
    ---[Information] [13.09.2016 20:19:21] x264 [info]: i16 v,h,dc,p: 17% 10% 20% 53%
    ---[Information] [13.09.2016 20:19:21] x264 [info]: i8 v,h,dc,ddl,ddr,vr,hd,vl,hu: 9% 11% 9% 9% 13% 12% 13% 11% 14%
    ---[Information] [13.09.2016 20:19:21] x264 [info]: i4 v,h,dc,ddl,ddr,vr,hd,vl,hu: 8% 9% 4% 9% 16% 14% 15% 11% 14%
    ---[Information] [13.09.2016 20:19:21] x264 [info]: i8c dc,h,v,p: 44% 24% 16% 15%
    ---[Information] [13.09.2016 20:19:21] x264 [info]: Weighted P-Frames: Y:3.9% UV:1.9%
    ---[Information] [13.09.2016 20:19:21] x264 [info]: ref P L0: 46.5% 11.2% 15.9% 6.0% 4.9% 3.4% 3.0% 1.8% 1.5% 1.2% 1.1% 0.9% 0.9% 0.8% 0.8% 0.2%
    ---[Information] [13.09.2016 20:19:21] x264 [info]: ref B L0: 74.5% 10.8% 4.6% 2.5% 1.8% 1.5% 1.2% 0.9% 0.6% 0.5% 0.4% 0.4% 0.2% 0.1%
    ---[Information] [13.09.2016 20:19:21] x264 [info]: ref B L1: 93.6% 6.4%
    ---[Information] [13.09.2016 20:19:21] x264 [info]: kb/s:4498.61
    ---[Information] [13.09.2016 20:19:21] encoded 163264 frames, 2.50 fps, 4498.61 kb/s
    Скачать .torrent

    Скачать торрент-файл бесплатно и на максимальной скорости!

    Как скачивать? · Что такое торрент? · Рейтинг и ограничения

    !ВНИМАНИЕ!
    Сайт не распространяет и не хранит электронные версии произведений, а занимается лишь лишь предоставлением доступа к создаваемому пользователями каталогу ссылок на торрент-файлы, которые содержат только списки хеш-сумм, убедительная просьба с жалобами обращаться напрямую к пользователю. Файлы для обмена на трекере предоставлены пользователями сайта, и администрация не несёт ответственности за их содержание. Просьба не заливать файлы, защищенные авторскими правами, а также файлы нелегального содержания!


    _________________
    [Профиль] [ЛС]
    Показать сообщения:    
    Ответить на тему

    Текущее время: Сегодня, в 06:54

    Часовой пояс: GMT + 2



    Вы не можете начинать темы
    Вы не можете отвечать на сообщения
    Вы не можете редактировать свои сообщения
    Вы не можете удалять свои сообщения
    Вы не можете голосовать в опросах
    Вы не можете прикреплять файлы к сообщениям
    Вы не можете скачивать файлы