BitTorrentTracker PerecTracker.org
BitTorrentTracker PerecTracker.org
    
Регистрация  ·  Вход
 
 · 
Забыли пароль?

  • [ATV3] Черепашки-ниндзя 2 / Teenage Mutant Ninja Turtles: Out of the Shadows (Дэйв Грин / Dave Green ) [2016, США, Гонконг, Китай, Канада , Фантастика, боевик, комедия, приключения, BDRip, HD (1080p)] DUB + Original + sub (rus, eng)

    Ответить на тему
     
    Автор Сообщение

    rechyn

    Создавать темы 14-Сен-2016 13:56

           

    [Цитировать]

    Черепашки-ниндзя 2 / Teenage Mutant Ninja Turtles: Out of the Shadows
    «Raise some shell»
    6.088 / 10 6.10 / 10
    -Год выпуска: 2016
    Страна: США, Гонконг, Китай, Канада
    Жанр: Фантастика, боевик, комедия, приключения
    Продолжительность: 01:52:07
    Перевод: Дублированный (iTunes)
    Оригинальная аудиодорожка: Есть
    Cубтитры: Русские форсированные, Русские, Английские
    Режиссёр: Дэйв Грин
    Сценарий: Джош Аппелбаум, Андре Немец, Питер Лэрд
    Продюсер: Эндрю Форм, Брэдли Фуллер, Скотт Медник
    Оператор: Лула Карвальо
    Композитор: Стив Яблонски
    Художник: Мартин Лэйн, Мигель Лопес-Кастильо, Бретт МакКензи
    Монтаж: Боб Дюксэй, Джим Мэй
    В ролях: Меган Фокс, Уилл Арнетт, Лора Линни, Стивен Амелл, Ноэль Фишер, Джереми Ховард, Пит Пложек, Алан Ричсон, Тайлер Перри, Брайан Ти
    Бюджет: $135 000 000
    Сборы в США: $82 051 601
    Сборы в мире: + $163 083 214 = $245 134 815
    Сборы в России: $9 798 717
    Мировая премьера: 22 мая 2016
    Премьера (РФ): 9 июня 2016, «Централ Партнершип»
    Описание: Долгое время черепашки-ниндзя скрывались от людей в лабиринтах городской канализации. На протяжении нескольких лет учитель Сплинтер обучал их боевым искусствам и прививал им чувство справедливости. В один прекрасный момент им пришлось подняться наверх, чтобы спасти Нью-Йорк от Шредера, предводителя Клана Футов, захватившего власть в Нью-Йорке. Вместе с отважным репортером Эйприл и ее оператором Верном, бесстрашные воины смогли одержать победу и очистить любимый город от преступности. Леонардо, Микеланджело, Рафаэль и Донателло нашли свое предназначение в этом мире и стали защитниками своего города. Они навели порядок в Нью-Йорке и с чистой совестью могли отправиться на покой, но однажды им вновь пришлось столкнуться с могущественным врагом, угрожающим их городу.-Качество исходника: BDRemux (HDClub)
    Качество: BDRip
    Тип: HD (1080p)
    Контейнер: M4V
    Видео: H.264, 1920x800, 2.40:1, 9 500 Kbps, 23.976 (24000/1001) fps
    Аудио 1: Русский/Дублированный (iTunes), AAC / 2.0 / 160 Kbps / 48.0 KHz
    Аудио 2: Английский/Оригинальная дорожка , AAC / 2.0 / 160 Kbps / 48.0 KHz
    Аудио 3: Русский/Дублированный (iTunes), AC-3 / 5.1 / 384 Kbps / 48.0 KHz
    Аудио 4: Английский/Оригинальная дорожка , AC-3 / 5.1 / 640 Kbps / 48.0 KHz
    Субтитры 1: Русские форсированные
    Субтитры 2: Русские полные
    Субтитры 3: Английские полные
    -

    iTunes Meta Tags

    Sort Name: Teenage Mutant Ninja Turtles: Out of the Shadows
    XID: Apple:vendor_id:2016-841518
    contentID: 1112687272
    Copyright: © MMXVI Paramount Pictures Corporation. All rights Reserved.
    Screenwriters: Джош Аппелбаум, Андре Немец, Питер Лэрд
    Producers: Эндрю Форм, Брэдли Фуллер, Скотт Медник
    Director: Дэйв Грин
    Cast: Меган Фокс, Уилл Арнетт, Лора Линни, Стивен Амелл, Ноэль Фишер, Джереми Ховард, Пит Пложек, Алан Ричсон, Тайлер Перри, Брайан Ти
    Studio: Paramount Pictures
    Rating Annotation: Rated PG-13 for sci-fi action violence.
    Rating: 4
    Long Description: Долгое время черепашки-ниндзя скрывались от людей в лабиринтах городской канализации. На протяжении нескольких лет учитель Сплинтер обучал их боевым искусствам и прививал им чувство справедливости. В один прекрасный момент им пришлось подняться наверх, чтобы спасти Нью-Йорк от Шредера, предводителя Клана Футов, захватившего власть в Нью-Йорке. Вместе с отважным репортером Эйприл и ее оператором Верном, бесстрашные воины смогли одержать победу и очистить любимый город от преступности. Леонардо, Микеланджело, Рафаэль и Донателло нашли свое предназначение в этом мире и стали защитниками своего города. Они навели порядок в Нью-Йорке и с чистой совестью могли отправиться на покой, но однажды им вновь пришлось столкнуться с могущественным врагом, угрожающим их городу.
    Description: Долгое время черепашки-ниндзя скрывались от людей в лабиринтах городской канализации. На протяжении нескольких лет учитель Сплинтер обучал их боевым искусствам и прививал им чувство справедливости. В один прекрасный момент им пришлось подняться наверх, чтобы спасти Нью-Йорк от Шредера, предводителя Клана Футов, захватившего власть в Нью-Йорке...
    Release Date: 2016-05-22T08:00:00Z
    Genre: Kids & Family
    Artist: Dave Green
    Name: Teenage Mutant Ninja Turtles: Out of the Shadows

    MediaInfo

    General
    Complete name                            : /Users/imac/HandBrake/Turtles 2 (1080p HD).m4v
    Format                                   : MPEG-4
    Codec ID                                 : M4V  (M4V /M4A /mp42/isom)
    File size                                : 8.49 GiB
    Duration                                 : 1h 52mn
    Overall bit rate mode                    : Variable
    Overall bit rate                         : 10.8 Mbps
    Movie name                               : Teenage Mutant Ninja Turtles: Out of the Shadows
    Performer                                : Dave Green
    Director                                 : Дэйв Грин
    Actor                                    : Меган Фокс / Уилл Арнетт / Лора Линни / Стивен Амелл / Ноэль Фишер / Джереми Ховард / Пит Пложек / Алан Ричсон / Тайлер Перри / Брайан Ти
    Screenplay by                            : Джош Аппелбаум / Андре Немец / Питер Лэрд
    Producer                                 : Эндрю Форм / Брэдли Фуллер / Скотт Медник
    Production studio                        : Paramount Pictures
    Genre                                    : Kids & Family
    ContentType                              : Short Film
    Description                              : Долгое время черепашки-ниндзя скрывались от людей в лабиринтах городской канализации. На протяжении нескольких лет учитель Сплинтер обучал их боевым искусствам и прививал им чувство справедливости. В один прекрасный момент им пришлось подняться наверх, чтобы спасти Нью-Йорк от Шредера, предводителя Клана Футов, захватившего власть в Нью-Йорке...
    Recorded date                            : UTC 2016-05-22 08:00:00
    Encoded date                             : UTC 2016-09-14 08:47:32
    Tagged date                              : UTC 2016-09-14 08:52:19
    Copyright                                : © MMXVI Paramount Pictures Corporation. All rights Reserved.
    Cover                                    : Yes
    Rating                                   : None
    Title/Sort                               : Teenage Mutant Ninja Turtles: Out of the Shadows
    LongDescription                          : Долгое время черепашки-ниндзя скрывались от людей в лабиринтах городской канализации. На протяжении нескольких лет учитель Сплинтер обучал их боевым искусствам и прививал им чувство справедливости. В один прекрасный момент им пришлось подняться наверх, чтобы спасти Нью-Йорк от Шредера, предводителя Клана Футов, захватившего власть в Нью-Йорке. Вместе с отважным репортером Эйприл и ее оператором Верном, бесстрашные воины смогли одержать победу и очистить любимый город от преступности. Леонардо, Микеланджело, Рафаэль и Донателло нашли свое предназначение в этом мире и стали защитниками своего города. Они навели порядок в Нью-Йорке и с чистой совестью могли отправиться на покой, но однажды им вновь пришлось столкнуться с могущественным врагом, угрожающим их городу.
    AppleStoreCatalogID                      : 1112687272
    Vendor                                   : Apple:vendor_id:2016-841518
    ContentRating                            : mpaa|PG-13|300|Rated PG-13 for sci-fi action violence.
    Video #1
    ID                                       : 1
    Format                                   : AVC
    Format/Info                              : Advanced Video Codec
    Format profile                           : High@L4
    Format settings, CABAC                   : Yes
    Format settings, ReFrames                : 4 frames
    Codec ID                                 : avc1
    Codec ID/Info                            : Advanced Video Coding
    Duration                                 : 1h 52mn
    Source duration                          : 1h 52mn
    Bit rate                                 : 9 500 Kbps
    Width                                    : 1 920 pixels
    Height                                   : 800 pixels
    Display aspect ratio                     : 2.40:1
    Frame rate mode                          : Variable
    Frame rate                               : 23.976 (24000/1001) fps
    Minimum frame rate                       : 23.974 fps
    Maximum frame rate                       : 23.981 fps
    Color space                              : YUV
    Chroma subsampling                       : 4:2:0
    Bit depth                                : 8 bits
    Scan type                                : Progressive
    Bits/(Pixel*Frame)                       : 0.258
    Stream size                              : 7.43 GiB (88%)
    Source stream size                       : 7.43 GiB (88%)
    Title                                    : Main Program
    Writing library                          : x264 core 142 r2479 dd79a61
    Encoding settings                        : cabac=1 / ref=4 / deblock=1:-2:-2 / analyse=0x3:0x133 / me=umh / subme=10 / psy=1 / psy_rd=1.00:0.15 / mixed_ref=1 / me_range=32 / chroma_me=1 / trellis=2 / 8x8dct=1 / cqm=0 / deadzone=21,11 / fast_pskip=0 / chroma_qp_offset=-3 / threads=36 / lookahead_threads=6 / sliced_threads=0 / nr=0 / decimate=0 / interlaced=0 / bluray_compat=0 / constrained_intra=0 / bframes=16 / b_pyramid=2 / b_adapt=2 / b_bias=0 / direct=3 / weightb=1 / open_gop=0 / weightp=2 / keyint=240 / keyint_min=24 / scenecut=40 / intra_refresh=0 / rc_lookahead=60 / rc=2pass / mbtree=1 / bitrate=9500 / ratetol=1.0 / qcomp=0.70 / qpmin=0 / qpmax=69 / qpstep=4 / cplxblur=20.0 / qblur=0.5 / vbv_maxrate=25000 / vbv_bufsize=25000 / nal_hrd=none / filler=0 / ip_ratio=1.40 / aq=1:1.00
    Language                                 : English
    Encoded date                             : UTC 2016-09-14 08:47:33
    Tagged date                              : UTC 2016-09-14 08:47:58
    Color range                              : Limited
    Color primaries                          : BT.709
    Transfer characteristics                 : BT.709
    Matrix coefficients                      : BT.709
    Menus                                    : 9,10
    Video #2
    ID                                       : 10
    Format                                   : JPEG
    Codec ID                                 : jpeg
    Duration                                 : 1h 52mn
    Bit rate mode                            : Variable
    Bit rate                                 : 1 148 bps
    Width                                    : 640 pixels
    Height                                   : 266 pixels
    Display aspect ratio                     : 2.40:1
    Frame rate mode                          : Variable
    Frame rate                               : 0.003 fps
    Minimum frame rate                       : 0.002 fps
    Maximum frame rate                       : 0.006 fps
    Color space                              : YUV
    Chroma subsampling                       : 4:2:0
    Bit depth                                : 8 bits
    Compression mode                         : Lossy
    Bits/(Pixel*Frame)                       : 2.248
    Stream size                              : 841 KiB (0%)
    Title                                    : Chapter Images
    Language                                 : English
    Default                                  : No
    Encoded date                             : UTC 2016-09-14 08:48:11
    Tagged date                              : UTC 2016-09-14 08:48:11
    Menu For                                 : 1
    Audio #1
    ID                                       : 2
    Format                                   : AAC
    Format/Info                              : Advanced Audio Codec
    Format profile                           : LC
    Codec ID                                 : 40
    Duration                                 : 1h 52mn
    Bit rate mode                            : Variable
    Bit rate                                 : 157 Kbps
    Maximum bit rate                         : 267 Kbps
    Channel(s)                               : 2 channels
    Channel positions                        : Front: L R
    Sampling rate                            : 48.0 KHz
    Frame rate                               : 46.875 fps (1024 spf)
    Compression mode                         : Lossy
    Stream size                              : 126 MiB (1%)
    Title                                    : Russian Stereo
    Language                                 : Russian
    Default                                  : Yes
    Alternate group                          : 1
    Encoded date                             : UTC 2016-09-14 08:47:32
    Tagged date                              : UTC 2016-09-14 08:47:58
    Fallback From                            : 4
    Subtitles                                : 6,7
    Menus                                    : 9
    Audio #2
    ID                                       : 3
    Format                                   : AAC
    Format/Info                              : Advanced Audio Codec
    Format profile                           : LC
    Codec ID                                 : 40
    Duration                                 : 1h 52mn
    Bit rate mode                            : Variable
    Bit rate                                 : 158 Kbps
    Maximum bit rate                         : 254 Kbps
    Channel(s)                               : 2 channels
    Channel positions                        : Front: L R
    Sampling rate                            : 48.0 KHz
    Frame rate                               : 46.875 fps (1024 spf)
    Compression mode                         : Lossy
    Stream size                              : 126 MiB (1%)
    Title                                    : English Stereo
    Language                                 : English
    Default                                  : No
    Alternate group                          : 1
    Encoded date                             : UTC 2016-09-14 08:47:33
    Tagged date                              : UTC 2016-09-14 08:47:58
    Fallback From                            : 5
    Audio #3
    ID                                       : 4
    Format                                   : AC-3
    Format/Info                              : Audio Coding 3
    Mode extension                           : CM (complete main)
    Format settings, Endianness              : Big
    Codec ID                                 : ac-3
    Duration                                 : 1h 52mn
    Bit rate mode                            : Constant
    Bit rate                                 : 384 Kbps
    Channel(s)                               : 6 channels
    Channel positions                        : Front: L C R, Side: L R, LFE
    Sampling rate                            : 48.0 KHz
    Frame rate                               : 31.250 fps (1536 spf)
    Bit depth                                : 16 bits
    Compression mode                         : Lossy
    Stream size                              : 308 MiB (4%)
    Title                                    : Russian DD 5.1
    Language                                 : Russian
    Default                                  : Inherited From: 2
    Alternate group                          : 1
    Encoded date                             : UTC 2016-09-14 08:47:33
    Tagged date                              : UTC 2016-09-14 08:47:42
    Fallback To                              : 2
    Subtitles                                : 6,7
    Audio #4
    ID                                       : 5
    Format                                   : AC-3
    Format/Info                              : Audio Coding 3
    Mode extension                           : CM (complete main)
    Format settings, Endianness              : Big
    Codec ID                                 : ac-3
    Duration                                 : 1h 52mn
    Bit rate mode                            : Constant
    Bit rate                                 : 640 Kbps
    Channel(s)                               : 6 channels
    Channel positions                        : Front: L C R, Side: L R, LFE
    Sampling rate                            : 48.0 KHz
    Frame rate                               : 31.250 fps (1536 spf)
    Bit depth                                : 16 bits
    Compression mode                         : Lossy
    Stream size                              : 513 MiB (6%)
    Title                                    : English DD 5.1
    Language                                 : English
    Default                                  : No
    Alternate group                          : 1
    Encoded date                             : UTC 2016-09-14 08:47:33
    Tagged date                              : UTC 2016-09-14 08:47:42
    Fallback To                              : 3
    Text #1
    ID                                       : 6
    Format                                   : Timed Text
    Muxing mode                              : sbtl
    Codec ID                                 : tx3g
    Duration                                 : 1h 44mn
    Bit rate mode                            : Variable
    Bit rate                                 : 1 bps
    Stream size                              : 408 Bytes (0%)
    Title                                    : Russian Forced
    Language                                 : Russian
    Default                                  : Yes
    Forced                                   : Yes
    Alternate group                          : 2
    Encoded date                             : UTC 2016-09-14 08:47:33
    Tagged date                              : UTC 2016-09-14 08:47:34
    Subtitles For                            : 2,4
    Full Alternative                         : 7
    Text #2
    ID                                       : 7
    Format                                   : Timed Text
    Muxing mode                              : sbtl
    Codec ID                                 : tx3g
    Duration                                 : 1h 44mn
    Bit rate mode                            : Variable
    Bit rate                                 : 101 bps
    Stream size                              : 77.3 KiB (0%)
    Title                                    : Russian Full
    Language                                 : Russian
    Default                                  : No
    Forced                                   : No
    Alternate group                          : 2
    Encoded date                             : UTC 2016-09-14 08:47:33
    Tagged date                              : UTC 2016-09-14 08:47:34
    Subtitles For                            : 2,4
    Forced Alternative                       : 6
    Text #3
    ID                                       : 8
    Format                                   : Timed Text
    Muxing mode                              : sbtl
    Codec ID                                 : tx3g
    Duration                                 : 1h 44mn
    Bit rate mode                            : Variable
    Bit rate                                 : 73 bps
    Stream size                              : 56.1 KiB (0%)
    Title                                    : English Full
    Language                                 : English
    Default                                  : No
    Forced                                   : No
    Alternate group                          : 2
    Encoded date                             : UTC 2016-09-14 08:47:33
    Tagged date                              : UTC 2016-09-14 08:47:34
    Menu #1
    00:00:00.000                             : 00:00:00.000
    00:05:55.564                             : 00:05:55.564
    00:12:18.571                             : 00:12:18.571
    00:18:53.507                             : 00:18:53.507
    00:26:38.096                             : 00:26:38.096
    00:33:14.492                             : 00:33:14.492
    00:38:56.459                             : 00:38:56.459
    00:44:11.190                             : 00:44:11.190
    00:49:40.311                             : 00:49:40.311
    00:55:40.629                             : 00:55:40.629
    01:02:01.259                             : 01:02:01.259
    01:04:51.971                             : 01:04:51.971
    01:14:32.760                             : 01:14:32.760
    01:21:18.415                             : 01:21:18.415
    01:28:10.160                             : 01:28:10.160
    01:36:58.229                             : 01:36:58.229
    01:41:52.023                             : 01:41:52.023
    01:46:20.874                             : 01:46:20.874
    Menu #2
    ID                                       : 9
    Codec ID                                 : text
    Duration                                 : 1h 52mn
    Language                                 : English
    Encoded date                             : UTC 2016-09-14 08:47:58
    Tagged date                              : UTC 2016-09-14 08:47:58
    Bit rate mode                            : CBR
    Menu For                                 : 2,1
    00:00:00.000                             : 00:00:00.000
    00:05:55.564                             : 00:05:55.564
    00:12:18.571                             : 00:12:18.571
    00:18:53.507                             : 00:18:53.507
    00:26:38.096                             : 00:26:38.096
    00:33:14.492                             : 00:33:14.492
    00:38:56.459                             : 00:38:56.459
    00:44:11.190                             : 00:44:11.190
    00:49:40.311                             : 00:49:40.311
    00:55:40.629                             : 00:55:40.629
    01:02:01.259                             : 01:02:01.259
    01:04:51.971                             : 01:04:51.971
    01:14:32.760                             : 01:14:32.760
    01:21:18.415                             : 01:21:18.415
    01:28:10.160                             : 01:28:10.160
    01:36:58.229                             : 01:36:58.229
    01:41:52.023                             : 01:41:52.023
    01:46:20.874                             : 01:46:20.874

    x264 лог

    x264 [info]: frame I:1080  Avg QP:18.29  size:203367
    x264 [info]: frame P:55341 Avg QP:21.66  size: 71966
    x264 [info]: frame B:104880 Avg QP:22.79  size: 36004
    x264 [info]: consecutive B-frames: 10.4%  9.2% 25.4% 23.5% 12.6% 17.1%  1.1%  0.2%  0.2%  0.1%  0.0%  0.0%  0.0%  0.0%  0.0%  0.0%  0.1%
    x264 [info]: mb I  I16..4: 33.9% 45.6% 20.5%
    x264 [info]: mb P  I16..4: 12.2% 21.1%  2.9%  P16..4: 36.5% 12.9%  7.6%  0.4%  0.1%    skip: 6.4%
    x264 [info]: mb B  I16..4:  5.2%  3.0%  0.8%  B16..8: 37.0%  9.3%  2.3%  direct:10.4%  skip:32.0%  L0:38.5% L1:43.6% BI:17.9%
    x264 [info]: 8x8 transform intra:50.1% inter:59.6%
    x264 [info]: direct mvs  spatial:96.2% temporal:3.8%
    x264 [info]: coded y,uvDC,uvAC intra: 86.7% 89.8% 71.6% inter: 31.8% 41.0% 20.7%
    x264 [info]: i16 v,h,dc,p: 10% 10% 50% 30%
    x264 [info]: i8 v,h,dc,ddl,ddr,vr,hd,vl,hu: 12% 12%  9%  8% 11% 12% 12% 11% 13%
    x264 [info]: i4 v,h,dc,ddl,ddr,vr,hd,vl,hu: 12% 12% 14%  7% 12% 11% 12%  9% 12%
    x264 [info]: i8c dc,h,v,p: 49% 18% 16% 17%
    x264 [info]: Weighted P-Frames: Y:2.8% UV:1.8%
    x264 [info]: ref P L0: 55.8% 14.9% 19.9%  7.1%  2.3%  0.1%
    x264 [info]: ref B L0: 86.6% 11.1%  2.3%
    x264 [info]: ref B L1: 94.2%  5.8%
    x264 [info]: kb/s:9487.40

    Скриншоты


    -

    Релиз подготовлен для просмотра на Apple TV, iPad, iPhone, iPod Touch.
    Для просмотра данного релиза на компьютере с ОС Windows рекомендуется использовать VLC media player
    Скачать .torrent

    Скачать торрент-файл бесплатно и на максимальной скорости!

    Как скачивать? · Что такое торрент? · Рейтинг и ограничения

    !ВНИМАНИЕ!
    Сайт не распространяет и не хранит электронные версии произведений, а занимается лишь лишь предоставлением доступа к создаваемому пользователями каталогу ссылок на торрент-файлы, которые содержат только списки хеш-сумм, убедительная просьба с жалобами обращаться напрямую к пользователю. Файлы для обмена на трекере предоставлены пользователями сайта, и администрация не несёт ответственности за их содержание. Просьба не заливать файлы, защищенные авторскими правами, а также файлы нелегального содержания!


    _________________
    [Профиль] [ЛС]
    Показать сообщения:    
    Ответить на тему

    Текущее время: Сегодня, в 18:08

    Часовой пояс: GMT + 2



    Вы не можете начинать темы
    Вы не можете отвечать на сообщения
    Вы не можете редактировать свои сообщения
    Вы не можете удалять свои сообщения
    Вы не можете голосовать в опросах
    Вы не можете прикреплять файлы к сообщениям
    Вы не можете скачивать файлы