BitTorrentTracker PerecTracker.org
BitTorrentTracker PerecTracker.org
    
Регистрация  ·  Вход
 
 · 
Забыли пароль?

  • Самый жаркий день / Самый крутой день / Der geilste Tag (Флориан Давид Фиц / Florian David Fitz) [2016, Германия, драма, комедия, HDRip] AVO (Карповский)

    Ответить на тему
     
    Автор Сообщение

    rechyn

    Создавать темы 12-Сен-2016 20:24

           

    [Цитировать]

    Самый жаркий день / Самый крутой день / Der geilste Tag
    Страна: Германия
    Жанр: Комедия, драма
    Год выпуска: 2016
    Продолжительность: 01:53:23
    Перевод: Авторский (одноголсый, закадровый) | А. Карповский
    Cубтитры: нет
    Режиссер: Флориан Давид Фиц / Florian David Fitz
    В ролях: Маттиас Швайгхефер, Флориан Давид Фитц, Райнер Бок, Ларс Допплер, Андреас Дубоис, Джэки Хилл, Александра Мария Лара, Фредерик Линкеманн, Роберт Никиш, Кэролайн Рэпп
    Описание: Два обреченных на смерть парня Анди и Бенно познакомились в больнице, оказавшись соседями по палате. Драма надвигающейся смерти, не единственная, для этих молодых людей. Близкий жизненный финал заставляет их думать о смысле жизни, о том, что останется после них. Желание убежать от тоски превалирует надо всем, но особой вящей приманкой наседает соблазн - попытаться уладить последние долги перед теми, кто некогда был дорог. И тут у героев вызревает отчаянный план, полный куражного авантюризма, такого, который бывает лишь у тех, кому осталось совсем недолго.... Бенно подбивает Анди набрать кучу кредитов, и в короткий остаток земных дней устроить себе праздник на всю катушку. Ясное дело - кредиты отдавать уже не придется, ведь героям осталось жить совсем немного. Тут выясняется, что понимание надвигающейся смерти по - особенному высвобождает творческие силы и дух человека. Отодвинув уныние прочь, герои отправляются в Южную Африку, куда ранее уехала бывшая жена Бенно с его дочерью.

    Сэмпл
    Релиз от Megapeer
    Заказ перевода у Антона Карповского (сентябрь 2016) - ylnian
    За сборку дороги спасибо rammzez

    Качество видео: HDRip
    Формат видео: AVI
    Видео: 688x288 (2.39:1), 23.976 fps, XviD build 73 ~789 kbps avg, 0.17 bit/pixel
    Аудио: 48 kHz, MPEG Layer 3, 2 ch, ~128.00 kbps avg

    MediaInfo

    ОбщееПолное имя : D:\Der.geilste.Tag.2016.HDRip.745MB.MegaPeer.aviФормат : AVIФормат/Информация : Audio Video InterleaveРазмер файла : 749 МбайтПродолжительность : 1 ч. 53 м.Общий поток : 923 Кбит/сек
    ВидеоИдентификатор : 0Формат : MPEG-4 VisualПрофиль формата : Advanced Simple@L5Параметр BVOP формата : 1Параметр QPel формата : НетПараметр GMC формата : Без точки переходаПараметр матрицы формата : ВыборочнаяИдентификатор кодека : XVIDИдентификатор кодека/Подсказка : XviDПродолжительность : 1 ч. 53 м.Битрейт : 789 Кбит/секШирина : 688 пикселейВысота : 288 пикселейСоотношение сторон : 2,40:1Частота кадров : 23,976 (24000/1001) кадра/секЦветовое пространство : YUVСубдискретизация насыщенности : 4:2:0Битовая глубина : 8 битТип развёртки : ПрогрессивнаяМетод сжатия : С потерямиБит/(Пиксели*Кадры) : 0.166Размер потока : 640 Мбайт (86%)Библиотека кодирования : XviD 73
    АудиоИдентификатор : 1Формат : MPEG AudioВерсия формата : Version 1Профиль формата : Layer 3Режим : Joint stereoРасширение режима : MS StereoИдентификатор кодека : 55Идентификатор кодека/Подсказка : MP3Продолжительность : 1 ч. 53 м.Вид битрейта : ПостоянныйБитрейт : 128 Кбит/секКаналы : 2 каналаЧастота : 48,0 КГцМетод сжатия : С потерямиРазмер потока : 104 Мбайт (14%)Выравнивание : Соединение по промежуткамПродолжительность промежутка : 167 мс. (4,00 видеокадра)Время предзагрузки промежутка : 216 мс.Заголовок : AVO | А. Карповский |Библиотека кодирования : LAME3.99rНастройки программы : -m j -V 4 -q 2 -lowpass 17 -b 128

    Скриншоты

    Скачать .torrent

    Скачать торрент-файл бесплатно и на максимальной скорости!

    Как скачивать? · Что такое торрент? · Рейтинг и ограничения

    !ВНИМАНИЕ!
    Сайт не распространяет и не хранит электронные версии произведений, а занимается лишь лишь предоставлением доступа к создаваемому пользователями каталогу ссылок на торрент-файлы, которые содержат только списки хеш-сумм, убедительная просьба с жалобами обращаться напрямую к пользователю. Файлы для обмена на трекере предоставлены пользователями сайта, и администрация не несёт ответственности за их содержание. Просьба не заливать файлы, защищенные авторскими правами, а также файлы нелегального содержания!


    _________________
    [Профиль] [ЛС]
    Показать сообщения:    
    Ответить на тему

    Текущее время: Сегодня, в 19:35

    Часовой пояс: GMT + 2



    Вы не можете начинать темы
    Вы не можете отвечать на сообщения
    Вы не можете редактировать свои сообщения
    Вы не можете удалять свои сообщения
    Вы не можете голосовать в опросах
    Вы не можете прикреплять файлы к сообщениям
    Вы не можете скачивать файлы