BitTorrentTracker PerecTracker.org
BitTorrentTracker PerecTracker.org
    
Регистрация  ·  Вход
 
 · 
Забыли пароль?

  • Варкрафт / Warcraft (Дункан Джонс / Duncan Jones ) [2016, США, Фэнтези, боевик, приключения, BDRip, HD (720p)] DUB + Original + sub (rus, eng)

    Ответить на тему
     
    Автор Сообщение

    rechyn

    Создавать темы 12-Сен-2016 16:19

           

    [Цитировать]

    Варкрафт / Warcraft
    «Два мира - одна судьба»
    7.783 / 10 7.20 / 10
    -Год выпуска: 2016
    Страна: США
    Жанр: Фэнтези, боевик, приключения
    Продолжительность: 02:03:07
    Перевод: Дублированный (iTunes)
    Оригинальная аудиодорожка: Есть
    Cубтитры: Русские, Английские
    Режиссёр: Дункан Джонс
    Сценарий: Чарльз Ливитт, Дункан Джонс
    Продюсер: Стюарт Фенеган, Алекс Гартнер, Джон Дж. Джашни
    Оператор: Саймон Дагган
    Композитор: Рамин Джавади
    Художник: Гэвин Боке, Дэн Хермансен, Хелен Джарвис
    Монтаж: Пол Хирш
    В ролях: Трэвис Фиммел, Пола Пэттон, Бен Фостер, Доминик Купер, Тоби Кеббелл, Бен Шнетцер, Роберт Казински, Клэнси Браун, Дэниэл Ву, Рут Негга
    Бюджет: $160 000 000
    Сборы в США: $47 225 655
    Сборы в мире: + $386 311 893 = $433 537 548
    Сборы в России: $23 266 264
    Мировая премьера: 24 мая 2016
    Премьера (РФ): 26 мая 2016, «UPI»
    Описание: Веками магия и неприступные стены защищали людей от любых напастей. Но древнее зло, побежденное и забытое тысячелетия назад, пробудилось. В самом сердце королевства открылся темный портал, и раса невиданных существ наводнила земли Азерота. Так начались события, призванные навсегда изменить судьбу этого мира.-Качество исходника: BDRemux (HDClub)
    Качество: BDRip
    Тип: HD (720p)
    Контейнер: M4V
    Видео: H.264, 1280x528, 2.40:1, 3 500 Kbps, 23.976 (24000/1001) fps
    Аудио 1: Русский/Дублированный (iTunes), AAC / 2.0 / 160 Kbps / 48.0 KHz
    Аудио 2: Английский/Оригинальная дорожка , AAC / 2.0 / 160 Kbps / 48.0 KHz
    Аудио 3: Русский/Дублированный (iTunes), AC-3 / 5.1 / 384 Kbps / 48.0 KHz
    Аудио 4: Английский/Оригинальная дорожка , AC-3 / 5.1 / 640 Kbps / 48.0 KHz
    Субтитры 1: Русские полные
    Субтитры 2: Английские полные
    -

    iTunes Meta Tags

    Sort Name: Warcraft
    XID: Apple:vendor_id:2016-277328
    contentID: 1112365515
    Copyright: © 2016 Universal Studios. All Rights Reserved.
    Screenwriters: Чарльз Ливитт, Дункан Джонс
    Producers: Стюарт Фенеган, Алекс Гартнер, Джон Дж. Джашни
    Director: Дункан Джонс
    Cast: Трэвис Фиммел, Пола Пэттон, Бен Фостер, Доминик Купер, Тоби Кеббелл, Бен Шнетцер, Роберт Казински, Клэнси Браун, Дэниэл Ву, Рут Негга
    Studio: Universal Pictures
    Rating Annotation: Rated PG-13 for extended sequences of intense fantasy violence&
    Rating: 4
    Long Description: Веками магия и неприступные стены защищали людей от любых напастей. Но древнее зло, побежденное и забытое тысячелетия назад, пробудилось.
    В самом сердце королевства открылся темный портал, и раса невиданных существ наводнила земли Азерота. Так начались события, призванные навсегда изменить судьбу этого мира.
    Description: Веками магия и неприступные стены защищали людей от любых напастей. Но древнее зло, побежденное и забытое тысячелетия назад, пробудилось...
    Release Date: 2016-05-24T08:00:00Z
    Genre: Action & Adventure
    Artist: Duncan Jones
    Name: Warcraft

    MediaInfo

    General
    Complete name                            : /Users/imac/HandBrake/Warcraft (720p HD).m4v
    Format                                   : MPEG-4
    Codec ID                                 : M4V  (M4V /M4A /mp42/isom)
    File size                                : 4.17 GiB
    Duration                                 : 2h 3mn
    Overall bit rate mode                    : Variable
    Overall bit rate                         : 4 847 Kbps
    Movie name                               : Warcraft
    Performer                                : Duncan Jones
    Director                                 : Дункан Джонс
    Actor                                    : Трэвис Фиммел / Пола Пэттон / Бен Фостер / Доминик Купер / Тоби Кеббелл / Бен Шнетцер / Роберт Казински / Клэнси Браун / Дэниэл Ву / Рут Негга
    Screenplay by                            : Чарльз Ливитт / Дункан Джонс
    Producer                                 : Стюарт Фенеган / Алекс Гартнер / Джон Дж. Джашни
    Production studio                        : Universal Pictures
    Genre                                    : Action & Adventure
    ContentType                              : Short Film
    Description                              : Веками магия и неприступные стены защищали людей от любых напастей. Но древнее зло, побежденное и забытое тысячелетия назад, пробудилось...
    Recorded date                            : UTC 2016-05-24 08:00:00
    Encoded date                             : UTC 2016-09-12 09:19:27
    Tagged date                              : UTC 2016-09-12 09:22:09
    Copyright                                : © 2016 Universal Studios. All Rights Reserved.
    Cover                                    : Yes
    Rating                                   : None
    Title/Sort                               : Warcraft
    LongDescription                          : Веками магия и неприступные стены защищали людей от любых напастей. Но древнее зло, побежденное и забытое тысячелетия назад, пробудилось. / В самом сердце королевства открылся темный портал, и раса невиданных существ наводнила земли Азерота. Так начались события, призванные навсегда изменить судьбу этого мира.
    HDVideo                                  : Yes
    AppleStoreCatalogID                      : 1112365515
    Vendor                                   : Apple:vendor_id:2016-277328
    ContentRating                            : mpaa|PG-13|300|Rated PG-13 for extended sequences of intense fantasy violence&
    Video #1
    ID                                       : 1
    Format                                   : AVC
    Format/Info                              : Advanced Video Codec
    Format profile                           : High@L3.1
    Format settings, CABAC                   : No
    Format settings, ReFrames                : 3 frames
    Codec ID                                 : avc1
    Codec ID/Info                            : Advanced Video Coding
    Duration                                 : 2h 3mn
    Source duration                          : 2h 3mn
    Bit rate                                 : 3 500 Kbps
    Width                                    : 1 280 pixels
    Height                                   : 528 pixels
    Display aspect ratio                     : 2.40:1
    Frame rate mode                          : Variable
    Frame rate                               : 23.976 (24000/1001) fps
    Minimum frame rate                       : 23.974 fps
    Maximum frame rate                       : 23.981 fps
    Color space                              : YUV
    Chroma subsampling                       : 4:2:0
    Bit depth                                : 8 bits
    Scan type                                : Progressive
    Bits/(Pixel*Frame)                       : 0.216
    Stream size                              : 3.01 GiB (72%)
    Source stream size                       : 3.01 GiB (72%)
    Title                                    : Main Program
    Writing library                          : x264 core 142 r2479 dd79a61
    Encoding settings                        : cabac=0 / ref=3 / deblock=1:-3:-3 / analyse=0x3:0x113 / me=umh / subme=9 / psy=1 / psy_rd=1.00:0.15 / mixed_ref=1 / me_range=32 / chroma_me=1 / trellis=0 / 8x8dct=1 / cqm=0 / deadzone=21,11 / fast_pskip=0 / chroma_qp_offset=-2 / threads=36 / lookahead_threads=3 / sliced_threads=0 / nr=0 / decimate=0 / interlaced=0 / bluray_compat=0 / constrained_intra=0 / bframes=3 / b_pyramid=0 / b_adapt=2 / b_bias=0 / direct=1 / weightb=0 / open_gop=0 / weightp=0 / keyint=240 / keyint_min=24 / scenecut=40 / intra_refresh=0 / rc_lookahead=40 / rc=2pass / mbtree=1 / bitrate=3500 / ratetol=1.0 / qcomp=0.65 / qpmin=0 / qpmax=69 / qpstep=4 / cplxblur=20.0 / qblur=0.5 / vbv_maxrate=9500 / vbv_bufsize=9500 / nal_hrd=none / filler=0 / ip_ratio=1.40 / aq=1:1.10
    Language                                 : English
    Encoded date                             : UTC 2016-09-12 09:19:27
    Tagged date                              : UTC 2016-09-12 09:19:36
    Color range                              : Limited
    Color primaries                          : BT.709
    Transfer characteristics                 : BT.709
    Matrix coefficients                      : BT.709
    Menus                                    : 8,9
    Video #2
    ID                                       : 9
    Format                                   : JPEG
    Codec ID                                 : jpeg
    Duration                                 : 2h 3mn
    Bit rate mode                            : Variable
    Bit rate                                 : 1 316 bps
    Width                                    : 640 pixels
    Height                                   : 264 pixels
    Display aspect ratio                     : 2.40:1
    Frame rate mode                          : Variable
    Frame rate                               : 0.003 fps
    Minimum frame rate                       : 0.002 fps
    Maximum frame rate                       : 0.006 fps
    Color space                              : YUV
    Chroma subsampling                       : 4:2:0
    Bit depth                                : 8 bits
    Compression mode                         : Lossy
    Bits/(Pixel*Frame)                       : 2.596
    Stream size                              : 1.05 MiB (0%)
    Title                                    : Chapter Images
    Language                                 : English
    Default                                  : No
    Encoded date                             : UTC 2016-09-12 09:19:45
    Tagged date                              : UTC 2016-09-12 09:19:45
    Menu For                                 : 1
    Audio #1
    ID                                       : 2
    Format                                   : AAC
    Format/Info                              : Advanced Audio Codec
    Format profile                           : LC
    Codec ID                                 : 40
    Duration                                 : 2h 3mn
    Bit rate mode                            : Variable
    Bit rate                                 : 157 Kbps
    Maximum bit rate                         : 225 Kbps
    Channel(s)                               : 2 channels
    Channel positions                        : Front: L R
    Sampling rate                            : 48.0 KHz
    Frame rate                               : 46.875 fps (1024 spf)
    Compression mode                         : Lossy
    Stream size                              : 138 MiB (3%)
    Title                                    : Russian Stereo
    Language                                 : Russian
    Default                                  : Yes
    Alternate group                          : 1
    Encoded date                             : UTC 2016-09-12 09:19:28
    Tagged date                              : UTC 2016-09-12 09:19:40
    Fallback From                            : 4
    Audio #2
    ID                                       : 3
    Format                                   : AAC
    Format/Info                              : Advanced Audio Codec
    Format profile                           : LC
    Codec ID                                 : 40
    Duration                                 : 2h 3mn
    Bit rate mode                            : Variable
    Bit rate                                 : 157 Kbps
    Maximum bit rate                         : 230 Kbps
    Channel(s)                               : 2 channels
    Channel positions                        : Front: L R
    Sampling rate                            : 48.0 KHz
    Frame rate                               : 46.875 fps (1024 spf)
    Compression mode                         : Lossy
    Stream size                              : 138 MiB (3%)
    Title                                    : English Stereo
    Language                                 : English
    Default                                  : No
    Alternate group                          : 1
    Encoded date                             : UTC 2016-09-12 09:19:28
    Tagged date                              : UTC 2016-09-12 09:19:40
    Fallback From                            : 5
    Audio #3
    ID                                       : 4
    Format                                   : AC-3
    Format/Info                              : Audio Coding 3
    Mode extension                           : CM (complete main)
    Format settings, Endianness              : Big
    Codec ID                                 : ac-3
    Duration                                 : 2h 3mn
    Bit rate mode                            : Constant
    Bit rate                                 : 384 Kbps
    Channel(s)                               : 6 channels
    Channel positions                        : Front: L C R, Side: L R, LFE
    Sampling rate                            : 48.0 KHz
    Frame rate                               : 31.250 fps (1536 spf)
    Bit depth                                : 16 bits
    Compression mode                         : Lossy
    Stream size                              : 338 MiB (8%)
    Title                                    : Russian DD 5.1
    Language                                 : Russian
    Default                                  : Inherited From: 2
    Alternate group                          : 1
    Encoded date                             : UTC 2016-09-12 09:19:28
    Tagged date                              : UTC 2016-09-12 09:19:40
    Fallback To                              : 2
    Audio #4
    ID                                       : 5
    Format                                   : AC-3
    Format/Info                              : Audio Coding 3
    Mode extension                           : CM (complete main)
    Format settings, Endianness              : Big
    Codec ID                                 : ac-3
    Duration                                 : 2h 3mn
    Bit rate mode                            : Constant
    Bit rate                                 : 640 Kbps
    Channel(s)                               : 6 channels
    Channel positions                        : Front: L C R, Side: L R, LFE
    Sampling rate                            : 48.0 KHz
    Frame rate                               : 31.250 fps (1536 spf)
    Bit depth                                : 16 bits
    Compression mode                         : Lossy
    Stream size                              : 564 MiB (13%)
    Title                                    : English DD 5.1
    Language                                 : English
    Default                                  : No
    Alternate group                          : 1
    Encoded date                             : UTC 2016-09-12 09:19:28
    Tagged date                              : UTC 2016-09-12 09:19:40
    Fallback To                              : 3
    Text #1
    ID                                       : 6
    Format                                   : Timed Text
    Muxing mode                              : sbtl
    Codec ID                                 : tx3g
    Duration                                 : 1h 54mn
    Bit rate mode                            : Variable
    Bit rate                                 : 62 bps
    Stream size                              : 52.2 KiB (0%)
    Title                                    : Russian full
    Language                                 : Russian
    Default                                  : Yes
    Forced                                   : No
    Alternate group                          : 2
    Encoded date                             : UTC 2016-09-12 09:19:28
    Tagged date                              : UTC 2016-09-12 09:19:39
    Text #2
    ID                                       : 7
    Format                                   : Timed Text
    Muxing mode                              : sbtl
    Codec ID                                 : tx3g
    Duration                                 : 1h 53mn
    Bit rate mode                            : Variable
    Bit rate                                 : 42 bps
    Stream size                              : 34.7 KiB (0%)
    Title                                    : English full
    Language                                 : English
    Default                                  : No
    Forced                                   : No
    Alternate group                          : 2
    Encoded date                             : UTC 2016-09-12 09:19:28
    Tagged date                              : UTC 2016-09-12 09:19:39
    Menu #1
    00:00:00.000                             : 00:00:00.000
    00:09:26.483                             : 00:09:26.483
    00:15:49.407                             : 00:15:49.407
    00:22:36.146                             : 00:22:36.146
    00:29:16.171                             : 00:29:16.171
    00:38:43.321                             : 00:38:43.321
    00:46:44.093                             : 00:46:44.093
    00:53:02.679                             : 00:53:02.679
    00:56:17.332                             : 00:56:17.332
    01:02:43.927                             : 01:02:43.927
    01:07:48.314                             : 01:07:48.314
    01:12:24.549                             : 01:12:24.549
    01:17:13.045                             : 01:17:13.045
    01:22:45.669                             : 01:22:45.669
    01:26:32.145                             : 01:26:32.145
    01:32:29.669                             : 01:32:29.669
    01:40:25.102                             : 01:40:25.102
    01:47:38.118                             : 01:47:38.118
    01:51:12.833                             : 01:51:12.833
    01:53:58.832                             : 01:53:58.832
    Menu #2
    ID                                       : 8
    Codec ID                                 : text
    Duration                                 : 2h 3mn
    Language                                 : English
    Encoded date                             : UTC 2016-09-12 09:19:40
    Tagged date                              : UTC 2016-09-12 09:19:40
    Bit rate mode                            : CBR
    Menu For                                 : 1
    00:00:00.000                             : 00:00:00.000
    00:09:26.483                             : 00:09:26.483
    00:15:49.407                             : 00:15:49.407
    00:22:36.146                             : 00:22:36.146
    00:29:16.171                             : 00:29:16.171
    00:38:43.321                             : 00:38:43.321
    00:46:44.093                             : 00:46:44.093
    00:53:02.679                             : 00:53:02.679
    00:56:17.332                             : 00:56:17.332
    01:02:43.927                             : 01:02:43.927
    01:07:48.314                             : 01:07:48.314
    01:12:24.549                             : 01:12:24.549
    01:17:13.045                             : 01:17:13.045
    01:22:45.669                             : 01:22:45.669
    01:26:32.145                             : 01:26:32.145
    01:32:29.669                             : 01:32:29.669
    01:40:25.102                             : 01:40:25.102
    01:47:38.118                             : 01:47:38.118
    01:51:12.833                             : 01:51:12.833
    01:53:58.832                             : 01:53:58.832

    x264 лог

    x264 [info]: frame I:1802  Avg QP:17.52  size:110264
    x264 [info]: frame P:77354 Avg QP:20.42  size: 29924
    x264 [info]: frame B:97963 Avg QP:23.20  size:  7324
    x264 [info]: consecutive B-frames:  7.5% 45.0% 34.0% 13.6%
    x264 [info]: mb I  I16..4:  7.0% 52.9% 40.1%
    x264 [info]: mb P  I16..4:  2.0%  7.1%  4.0%  P16..4: 46.5% 22.5% 10.0%  0.0%  0.0%    skip: 7.9%
    x264 [info]: mb B  I16..4:  0.3%  1.3%  0.8%  B16..8: 35.8%  7.7%  1.6%  direct: 3.5%  skip:49.0%  L0:32.9% L1:54.7% BI:12.4%
    x264 [info]: 8x8 transform intra:53.4% inter:47.5%
    x264 [info]: coded y,uvDC,uvAC intra: 80.6% 84.7% 63.6% inter: 25.5% 22.8% 13.4%
    x264 [info]: i16 v,h,dc,p: 46% 15%  7% 32%
    x264 [info]: i8 v,h,dc,ddl,ddr,vr,hd,vl,hu:  6%  7%  4% 12% 17% 15% 15% 11% 12%
    x264 [info]: i4 v,h,dc,ddl,ddr,vr,hd,vl,hu:  7%  9%  3% 12% 18% 16% 16% 10% 10%
    x264 [info]: i8c dc,h,v,p: 53% 17% 17% 14%
    x264 [info]: ref P L0: 79.9% 12.2%  8.0%
    x264 [info]: ref B L0: 86.0% 14.0%
    x264 [info]: kb/s:3498.79

    Скриншоты


    -

    Релиз подготовлен для просмотра на Apple TV, iPad, iPhone, iPod Touch.
    Для просмотра данного релиза на компьютере с ОС Windows рекомендуется использовать VLC media player
    Скачать .torrent

    Скачать торрент-файл бесплатно и на максимальной скорости!

    Как скачивать? · Что такое торрент? · Рейтинг и ограничения

    !ВНИМАНИЕ!
    Сайт не распространяет и не хранит электронные версии произведений, а занимается лишь лишь предоставлением доступа к создаваемому пользователями каталогу ссылок на торрент-файлы, которые содержат только списки хеш-сумм, убедительная просьба с жалобами обращаться напрямую к пользователю. Файлы для обмена на трекере предоставлены пользователями сайта, и администрация не несёт ответственности за их содержание. Просьба не заливать файлы, защищенные авторскими правами, а также файлы нелегального содержания!


    _________________
    [Профиль] [ЛС]
    Показать сообщения:    
    Ответить на тему

    Текущее время: Сегодня, в 21:52

    Часовой пояс: GMT + 2



    Вы не можете начинать темы
    Вы не можете отвечать на сообщения
    Вы не можете редактировать свои сообщения
    Вы не можете удалять свои сообщения
    Вы не можете голосовать в опросах
    Вы не можете прикреплять файлы к сообщениям
    Вы не можете скачивать файлы