BitTorrentTracker PerecTracker.org
BitTorrentTracker PerecTracker.org
    
Регистрация  ·  Вход
 
 · 
Забыли пароль?

  • Самый жаркий день / Самый крутой день / Der geilste Tag (Флориан Давид Фиц / Florian David Fitz) [2016, Германия, драма, комедия, BDRip] AVO (Карповский)

    Ответить на тему
     
    Автор Сообщение

    rechyn

    Создавать темы 12-Сен-2016 12:07

           

    [Цитировать]

    Самый жаркий день / Самый крутой день / Der geilste Tag
    Страна: Германия
    Студия: Erfttal Film, Pantaleon Films
    Жанр: Драма, комедия
    Год выпуска: 2016
    Продолжительность: 01:53:23
    Перевод: Авторский (одноголосый закадровый) Антон Карповский
    Cубтитры: нет
    Оригинальная аудиодорожка: нет
    Режиссер: Флориан Давид Фиц / Florian David Fitz
    В ролях: Маттиас Швайгхефер, Флориан Давид Фитц, Райнер Бок, Ларс Допплер, Андреас Дубоис, Джэки Хилл, Александра Мария Лара, Фредерик Линкеманн, Роберт Никиш, Кэролайн Рэпп
    Описание: Два обреченных на смерть парня Анди и Бенно познакомились в больнице, оказавшись соседями по палате. Драма надвигающейся смерти, не единственная, для этих молодых людей. Близкий жизненный финал заставляет их думать о смысле жизни, о том, что останется после них. Желание убежать от тоски превалирует надо всем, но особой вящей приманкой наседает соблазн - попытаться уладить последние долги перед теми, кто некогда был дорог. И тут у героев вызревает отчаянный план, полный куражного авантюризма, такого, который бывает лишь у тех, кому осталось совсем недолго.... Бенно подбивает Анди набрать кучу кредитов, и в короткий остаток земных дней устроить себе праздник на всю катушку. Ясное дело - кредиты отдавать уже не придется, ведь героям осталось жить совсем немного. Тут выясняется, что понимание надвигающейся смерти по - особенному высвобождает творческие силы и дух человека. Отодвинув уныние прочь, герои отправляются в Южную Африку, куда ранее уехала бывшая жена Бенно с его дочерью.
    Дополнительная информация:
    Автор релиза - ylnian
    Заказ перевода у Антона Карповского (сентябрь 2016) - ylnian
    За сборку дороги спасибо rammzez
    Источник для рипа - Blu-Ray (GER) - Der.geilste.Tag.2016.GERMAN.COMPLETE.BLURAY-AIDA
    Описание - из рецензии Антона Карповского


    Сэмпл: https://yadi.sk/i/_x2EUz_Yv2BfC
    Качество видео: BDRip
    Формат видео: AVI
    Видео: XviD, 720x304 (2,35:1), 23.976 fps, 1452 kbps, 0.277 bit/pixel
    Аудио: Русский AC3, 48000 Гц, 6ch, 384 kbps

    MediaInfo

    Общее
    Полное имя : E:\Der.geilste.Tag.2016.BDRip.AVO-ylnian.avi
    Формат : AVI
    Формат/Информация : Audio Video Interleave
    Размер файла : 1,46 Гбайт
    Продолжительность : 1 ч. 53 м.
    Общий поток : 1845 Кбит/сек
    Программа кодирования : VirtualDubMod 1.5.10.2 (build 2540/release)
    Библиотека кодирования : VirtualDubMod build 2540/release
    Видео
    Идентификатор : 0
    Формат : MPEG-4 Visual
    Профиль формата : Advanced Simple@L5
    Параметр BVOP формата : 1
    Параметр QPel формата : Нет
    Параметр GMC формата : Без точки перехода
    Параметр матрицы формата : Default (MPEG)
    Идентификатор кодека : XVID
    Идентификатор кодека/Подсказка : XviD
    Продолжительность : 1 ч. 53 м.
    Битрейт : 1452 Кбит/сек
    Ширина : 720 пикселей
    Высота : 304 пикселя
    Соотношение сторон : 2,35:1
    Частота кадров : 23,976 (24000/1001) кадра/сек
    Цветовое пространство : YUV
    Субдискретизация насыщенности : 4:2:0
    Битовая глубина : 8 бит
    Тип развёртки : Прогрессивная
    Метод сжатия : С потерями
    Бит/(Пиксели*Кадры) : 0.277
    Размер потока : 1,15 Гбайт (79%)
    Библиотека кодирования : XviD 67
    Аудио
    Идентификатор : 1
    Формат : AC-3
    Формат/Информация : Audio Coding 3
    Расширение режима : CM (complete main)
    Параметр Endianness формата : Big
    Идентификатор кодека : 2000
    Продолжительность : 1 ч. 53 м.
    Вид битрейта : Постоянный
    Битрейт : 384 Кбит/сек
    Каналы : 6 каналов
    Расположение каналов : Front: L C R, Side: L R, LFE
    Частота : 48,0 КГц
    Частота кадров : 31,250 кадров/сек (1536 spf)
    Метод сжатия : С потерями
    Размер потока : 311 Мбайт (21%)
    Выравнивание : Разделение по промежуткам
    Продолжительность промежутка : 42 мс. (1,00 видеокадр)
    Время предзагрузки промежутка : 500 мс.
    Заголовок : RUS - AVO - Karpovsky

    Скриншот c названием фильма

    Скриншоты

    Скачать .torrent

    Скачать торрент-файл бесплатно и на максимальной скорости!

    Как скачивать? · Что такое торрент? · Рейтинг и ограничения

    !ВНИМАНИЕ!
    Сайт не распространяет и не хранит электронные версии произведений, а занимается лишь лишь предоставлением доступа к создаваемому пользователями каталогу ссылок на торрент-файлы, которые содержат только списки хеш-сумм, убедительная просьба с жалобами обращаться напрямую к пользователю. Файлы для обмена на трекере предоставлены пользователями сайта, и администрация не несёт ответственности за их содержание. Просьба не заливать файлы, защищенные авторскими правами, а также файлы нелегального содержания!


    _________________
    [Профиль] [ЛС]
    Показать сообщения:    
    Ответить на тему

    Текущее время: Сегодня, в 14:53

    Часовой пояс: GMT + 2



    Вы не можете начинать темы
    Вы не можете отвечать на сообщения
    Вы не можете редактировать свои сообщения
    Вы не можете удалять свои сообщения
    Вы не можете голосовать в опросах
    Вы не можете прикреплять файлы к сообщениям
    Вы не можете скачивать файлы