BitTorrentTracker PerecTracker.org
BitTorrentTracker PerecTracker.org
    
Регистрация  ·  Вход
 
 · 
Забыли пароль?

  • На белом коне / Серии: 1-4 из 4 (Борис Рабей) [2016, Комедия, мелодрама, SATRip]

    Ответить на тему
     
    Автор Сообщение

    rechyn

    Создавать темы 11-Сен-2016 22:30

           

    [Цитировать]

    На белом коне-Год выпуска: 2016
    Производство: Россия, Группа компаний "Гамма"
    Жанр: Комедия, мелодрама
    Продолжительность: 00:45:00
    Субтитры: Нет-Режиссёр: Борис Рабей-В ролях: Максим Емельянов, Анастасия Евграфова, Алексей Демидов, Вера Шпак, Роман Полянский, Максим Амельченко, Александр Пашутин, Олег Филипчик, Елена Валюшкина, Игорь Скурихин-Описание: Это история о современной Москве — прекрасном городе, одним из символов которого сегодня стала конная полиция. Главный герой, следуя совету деда, принимает решение пройти все необходимые испытания и получить гордое имя кавалериста. Пересев на коня, он хочет покорить сердце девушки. Однако новая профессия становится для него чем-то большим.-Все раздачи сериала-Сэмпл: http://multi-up.com/1117460-Качество: SATRip
    Формат: AVI
    Видео кодек: XviD
    Аудио кодек: MP3
    Видео: 720x448 (16:10), 25.000 fps, XviD, 1597 Kbps, 0.198 Bits/Pixel
    Аудио: 48.0 kHz, MP3, 2 ch, 128 Kbps

    MI

    General
    Complete name : Downloads\Na.belom.kone.2016.SATRip
    Format : AVI
    Format/Info : Audio Video Interleave
    File size : 555 MiB
    Duration : 44mn 44s
    Overall bit rate : 1 735 Kbps
    Writing application : VirtualDubMod 1.5.10.3 | www.virtualdub-fr.org || (build 2550/release)
    Writing library : VirtualDubMod build 2550/release
    Video #0
    ID : 0
    Format : MPEG-4 Visual
    Format profile : Advanced Simple@L5
    Format settings, BVOP : 1
    Format settings, QPel : No
    Format settings, GMC : No warppoints
    Format settings, Matrix : Default (MPEG)
    Codec ID : XVID
    Codec ID/Hint : XviD
    Duration : 44mn 44s
    Bit rate : 1 597 Kbps
    Width : 720 pixels
    Height : 448 pixels
    Display aspect ratio : 16:10
    Frame rate : 25.000 fps
    Color space : YUV
    Chroma subsampling : 4:2:0
    Bit depth : 8 bits
    Scan type : Progressive
    Compression mode : Lossy
    Bits/(Pixel*Frame) : 0.198
    Stream size : 511 MiB (92%)
    Writing library : XviD 1.2.1 (UTC 2008-12-04)
    Audio #1
    ID : 1
    Format : MPEG Audio
    Format version : Version 1
    Format profile : Layer 3
    Codec ID : 55
    Codec ID/Hint : MP3
    Duration : 44mn 44s
    Bit rate mode : Constant
    Bit rate : 128 Kbps
    Channel(s) : 2 channels
    Sampling rate : 48.0 KHz
    Compression mode : Lossy
    Stream size : 41.0 MiB (7%)
    Alignment : Aligned on interleaves
    Interleave, duration : 40 ms (1.00 video frame)
    Interleave, preload duration : 504 ms
    Writing library : LAME3.99r
    Encoding settings : -m s -V 4 -q 2 -lowpass 17 -b 128

    Скриншоты

    Скачать .torrent

    Скачать торрент-файл бесплатно и на максимальной скорости!

    Как скачивать? · Что такое торрент? · Рейтинг и ограничения

    !ВНИМАНИЕ!
    Сайт не распространяет и не хранит электронные версии произведений, а занимается лишь лишь предоставлением доступа к создаваемому пользователями каталогу ссылок на торрент-файлы, которые содержат только списки хеш-сумм, убедительная просьба с жалобами обращаться напрямую к пользователю. Файлы для обмена на трекере предоставлены пользователями сайта, и администрация не несёт ответственности за их содержание. Просьба не заливать файлы, защищенные авторскими правами, а также файлы нелегального содержания!


    _________________
    [Профиль] [ЛС]
    Показать сообщения:    
    Ответить на тему

    Текущее время: Сегодня, в 10:20

    Часовой пояс: GMT + 2



    Вы не можете начинать темы
    Вы не можете отвечать на сообщения
    Вы не можете редактировать свои сообщения
    Вы не можете удалять свои сообщения
    Вы не можете голосовать в опросах
    Вы не можете прикреплять файлы к сообщениям
    Вы не можете скачивать файлы