BitTorrentTracker PerecTracker.org
BitTorrentTracker PerecTracker.org
    
Регистрация  ·  Вход
 
 · 
Забыли пароль?

  • Карина Красная / Серии: 1-8 из 8 (Евгений Лаврентьев) [2016, мелодрама, SATRip]

    Ответить на тему
     
    Автор Сообщение

    rechyn

    Создавать темы 11-Сен-2016 22:27

           

    [Цитировать]

    Карина Красная
    Год выпуска: 2016
    Производство: кинокомпания "Русское"
    Жанр: мелодрама
    Продолжительность: 00:40:00
    Субтитры: нет
    Режиссёр: Евгений Лаврентьев
    В ролях: Марина Коняшкина, Юрий Чурсин, Сергей Юшкевич, Антон Батырев, Алексей Коряков, Наталья Батрак, Григорий Калинин, Светлана Корчагина, Николай Сахаров, Тим Гетц, Зураб Миминошвили, Игорь Поселенов, Виктор Полторацкий, Михаил Негин, Максим Зыков, Дмитрий Сидоров (II)
    Описание: Первая любовь «комсомолки и красавицы» Карины оказывается несчастливой. Ее парень Миша, виновный в гибели пешехода, позволяет Карине взять вину на себя и рвёт с ней отношения. Неожиданно Карина получает предложение о замужестве от приятеля ее отца – влиятельного и зрелого мужчины, хозяина часовой мастерской. Разочаровавшись в своих иллюзиях, девушка выходит замуж за человека, которому есть что скрывать…

    Релиз группа
    Все раздачи сериала: Карина красная

    Качество: SATRip
    Формат: AVI
    Видео кодек: XviD
    Аудио кодек: AC3
    Видео: MPEG-4 Visual, 720х400, 25 кадр/с, ~1380 Кбит/сек, 0,192 bit/pixel
    Аудио: АС3, 48,0 kHz, 2 ch, 192 Кбит/с

    MI

    General
    Complete name               : X:\раздачи\Карина красная.2016.SATRip.Files-x.Карина красная.2016.SATRip.Files-x.avi
    Format                      : AVI
    Format/Info                 : Audio Video Interleave
    File size                   : 500 MiB
    Duration                    : 44mn 7s
    Overall bit rate            : 1 585 Kbps
    Writing application         : VirtualDubMod 1.5.10.3 | www.virtualdub-fr.org || (build 2550/release)
    Writing library             : VirtualDubMod build 2550/release
    Video
    ID                          : 0
    Format                      : MPEG-4 Visual
    Format profile              : Advanced Simple@L5
    Format settings, BVOP       : 1
    Format settings, QPel       : No
    Format settings, GMC        : No warppoints
    Format settings, Matrix     : Custom
    Codec ID                    : XVID
    Codec ID/Hint               : XviD
    Duration                    : 44mn 7s
    Bit rate                    : 1 383 Kbps
    Width                       : 720 pixels
    Height                      : 400 pixels
    Display aspect ratio        : 16:9
    Frame rate                  : 25.000 fps
    Color space                 : YUV
    Chroma subsampling          : 4:2:0
    Bit depth                   : 8 bits
    Scan type                   : Progressive
    Compression mode            : Lossy
    Bits/(Pixel*Frame)          : 0.192
    Stream size                 : 437 MiB (87%)
    Writing library             : XviD 73
    Audio
    ID                          : 1
    Format                      : AC-3
    Format/Info                 : Audio Coding 3
    Mode extension              : CM (complete main)
    Format settings, Endianness : Big
    Codec ID                    : 2000
    Duration                    : 44mn 7s
    Bit rate mode               : Constant
    Bit rate                    : 192 Kbps
    Channel(s)                  : 2 channels
    Channel positions           : Front: L R
    Sampling rate               : 48.0 KHz
    Frame rate                  : 31.250 fps (1536 spf)
    Compression mode            : Lossy
    Stream size                 : 60.6 MiB (12%)
    Alignment                   : Split accross interleaves
    Interleave, duration        : 40 ms (1.00 video frame)
    Interleave, preload duratio : 500 ms

    Скриншоты

    Скачать .torrent

    Скачать торрент-файл бесплатно и на максимальной скорости!

    Как скачивать? · Что такое торрент? · Рейтинг и ограничения

    !ВНИМАНИЕ!
    Сайт не распространяет и не хранит электронные версии произведений, а занимается лишь лишь предоставлением доступа к создаваемому пользователями каталогу ссылок на торрент-файлы, которые содержат только списки хеш-сумм, убедительная просьба с жалобами обращаться напрямую к пользователю. Файлы для обмена на трекере предоставлены пользователями сайта, и администрация не несёт ответственности за их содержание. Просьба не заливать файлы, защищенные авторскими правами, а также файлы нелегального содержания!


    _________________
    [Профиль] [ЛС]
    Показать сообщения:    
    Ответить на тему

    Текущее время: Сегодня, в 10:37

    Часовой пояс: GMT + 2



    Вы не можете начинать темы
    Вы не можете отвечать на сообщения
    Вы не можете редактировать свои сообщения
    Вы не можете удалять свои сообщения
    Вы не можете голосовать в опросах
    Вы не можете прикреплять файлы к сообщениям
    Вы не можете скачивать файлы