BitTorrentTracker PerecTracker.org
BitTorrentTracker PerecTracker.org
    
Регистрация  ·  Вход
 
 · 
Забыли пароль?

  • Инферно / Inferno (Винко Модерндорфер / Vinko Moderndorfer) [2014, Словения, Хорватия, Македония, Сербия, драма, DVDRip] DVO

    Ответить на тему
     
    Автор Сообщение

    Light

    Создавать темы 11-Сен-2016 00:21

           

    [Цитировать]

    Инферно / Inferno
    Страна: Словения, Хорватия, Македония, Сербия
    Жанр: драма
    Год выпуска: 2014
    Продолжительность: 01:47:45
    Перевод: Любительский (двухголосый закадровый) - озвучивание den904 и DeadSno, перевод - Professor
    Cубтитры: нет
    Оригинальная аудиодорожка: словенская
    Режиссер: Винко Модерндорфер / Vinko Moderndorfer
    В ролях: Марко Мандич, Медея Новак, Марко Буквич, Лара Волавшек, Ренато Йенчек, Йерней Шугман, Яна Жупанчич, Силва Чушин
    Описание: В центре этой социальной драмы семья оставшегося без работы человека и их ежедневная борьба за выживание. Ряд поступков Маре, вместе с его плохой привычкой говорить правду, вызывает эффект домино и превращает их жизнь в настоящий хаос...
    Сэмпл: http://multi-up.com/1117363
    Качество видео: DVDRip
    Формат видео: AVI
    Видео: XviD, 720x304, 2,35:1, 25 fps, 2 350 Kbps
    Аудио: AC-3, 48 kHz, 192 kbps, 2ch (русская)
    Аудио 2: AC-3, 48 kHz, 192 kbps, 2ch (словенская)

    MediaInfo

    General
    Complete name : /home/evgeny/Загрузки/Inferno[2014].avi
    Format : AVI
    Format/Info : Audio Video Interleave
    Format profile : OpenDML
    File size : 2.07 GiB
    Duration : 1h 47mn
    Overall bit rate : 2 753 Kbps
    Writing application : VirtualDubMod 1.5.10.2 (build 2540/release)
    Writing library : VirtualDubMod build 2540/release
    Video
    ID : 0
    Format : MPEG-4 Visual
    Format profile : Advanced Simple@L5
    Format settings, BVOP : 2
    Format settings, QPel : No
    Format settings, GMC : No warppoints
    Format settings, Matrix : Custom
    Codec ID : XVID
    Codec ID/Hint : XviD
    Duration : 1h 47mn
    Bit rate : 2 350 Kbps
    Width : 720 pixels
    Height : 304 pixels
    Display aspect ratio : 2.35:1
    Frame rate : 25.000 fps
    Color space : YUV
    Chroma subsampling : 4:2:0
    Bit depth : 8 bits
    Scan type : Progressive
    Compression mode : Lossy
    Bits/(Pixel*Frame) : 0.429
    Stream size : 1.77 GiB (85%)
    Writing library : XviD 1.2.0.dev47 (UTC 2006-11-01)
    Audio #1
    ID : 1
    Format : AC-3
    Format/Info : Audio Coding 3
    Mode extension : CM (complete main)
    Format settings, Endianness : Big
    Codec ID : 2000
    Duration : 1h 47mn
    Bit rate mode : Constant
    Bit rate : 192 Kbps
    Channel(s) : 2 channels
    Channel positions : Front: L R
    Sampling rate : 48.0 KHz
    Frame rate : 31.250 fps (1536 spf)
    Compression mode : Lossy
    Stream size : 148 MiB (7%)
    Alignment : Split accross interleaves
    Interleave, duration : 40 ms (1.00 video frame)
    Interleave, preload duration : 500 ms
    Audio #2
    ID : 2
    Format : AC-3
    Format/Info : Audio Coding 3
    Mode extension : CM (complete main)
    Format settings, Endianness : Big
    Codec ID : 2000
    Duration : 1h 47mn
    Bit rate mode : Constant
    Bit rate : 192 Kbps
    Channel(s) : 2 channels
    Channel positions : Front: L R
    Sampling rate : 48.0 KHz
    Frame rate : 31.250 fps (1536 spf)
    Compression mode : Lossy
    Stream size : 148 MiB (7%)
    Alignment : Split accross interleaves
    Interleave, duration : 40 ms (1.00 video frame)
    Interleave, preload duration : 500 ms

    Скриншот c названием фильма

    Скриншоты

    Скачать .torrent

    Скачать торрент-файл бесплатно и на максимальной скорости!

    Как скачивать? · Что такое торрент? · Рейтинг и ограничения

    !ВНИМАНИЕ!
    Сайт не распространяет и не хранит электронные версии произведений, а занимается лишь лишь предоставлением доступа к создаваемому пользователями каталогу ссылок на торрент-файлы, которые содержат только списки хеш-сумм, убедительная просьба с жалобами обращаться напрямую к пользователю. Файлы для обмена на трекере предоставлены пользователями сайта, и администрация не несёт ответственности за их содержание. Просьба не заливать файлы, защищенные авторскими правами, а также файлы нелегального содержания!


    _________________
    [Профиль] [ЛС]
    Показать сообщения:    
    Ответить на тему

    Текущее время: Сегодня, в 11:53

    Часовой пояс: GMT + 2



    Вы не можете начинать темы
    Вы не можете отвечать на сообщения
    Вы не можете редактировать свои сообщения
    Вы не можете удалять свои сообщения
    Вы не можете голосовать в опросах
    Вы не можете прикреплять файлы к сообщениям
    Вы не можете скачивать файлы