BitTorrentTracker PerecTracker.org
BitTorrentTracker PerecTracker.org
    
Регистрация  ·  Вход
 
 · 
Забыли пароль?

  • Книга легенд. Таинственный лес (Ахат Ибраев) [2012, Казахстан, фэнтези, комедия, приключения, DVB] + Original Rus

    Ответить на тему
     
    Автор Сообщение

    Light

    Создавать темы 11-Сен-2016 00:21

           

    [Цитировать]

    Книга легенд. Таинственный лес
    Страна: Казахстан
    Жанр: фэнтези, комедия, приключения
    Год выпуска: 2012
    Продолжительность: 01:19:22
    Перевод: Не требуется
    Cубтитры: нет
    Оригинальная аудиодорожка: русский
    Режиссер: Ахат Ибраев
    В ролях: Куан Лекеров, Алишер Хаиров, Айнур Ниязова, Даулет Абдыгапаров, Жанат (Жан) Байжанбаев, Гульнара Дусматова, Жанна Куанышева, Санжар Мадиев, Михаил Токарев, Айгуль Мукей, Азамат Ашимов, Фархат Абдраимов, Димаш Ахимов, Альфия Кунгужинова
    Описание: Баха и Таха — сыновья известного бизнесмена, хулиганы и любители приключений. Их жизнь полна проделок и неожиданных «сюрпризов».
    Однажды, прочитав в книге о том, что Царица амазонок нуждается в помощи в борьбе против сил Зла, они решают отправиться в сказочный лес, чтобы выручить Царицу амазонок, а в обмен на эту помощь — оживить маму и вернуть внимание своего отца.
    Тем временем, злая мачеха, измученная выходками детей, нанимает двух бандитов для их похищения. Незадачливые похитители увозят хулиганов далеко в лес, где кроется портал в древний фантастический мир…
    Доп. информация:
    Сценарист: Ахат Ибраев
    Оператор: Александр Плотников
    Композитор: Никита Карев
    Художник: Аскар Искаков, Асель Шалабаева
    Продюсеры: Ахат Ибраев, Алия Мендыгожина (иcп.), Ермек Аманшаев
    Производство: "Казахфильм" при участии Adigul films

    Афиша


    Запись потока *.ts с наземного цифрового телеканала "Беларусь 3".
    Во время показа появляется баннер оповещения о трансляции фильма. А так же анонс во время трансляции финальных интертитров. Видно на скрине.
    Благодарность: за помощь с недостающим материалом Bartimeyse и PavelDAS. Обоим большое спасибо!
    Качество: DVB
    Контейнер: TS
    Видео кодек: H.264
    Аудио кодек: MP2
    Видео: MPEG4 Video (H264) 720(785)x576 (4:3) 25fps, 2 252 Kbps
    Аудио: MPEG Audio 48000Hz stereo 256kbps
    Сэмпл: https://www.sendspace.com/file/jrjtkh

    MediaInfo

    GeneralID : 1 (0x1)Complete name : D:\Новая земля 2\Художественные фильмы\Книга легенд. Таинственный лес (2012)\Книга легенд. Таинственный лес (2012).tsFormat : MPEG-TSFile size : 1.46 GiBDuration : 1h 19mnOverall bit rate mode : VariableOverall bit rate : 2 641 Kbps
    VideoID : 801 (0x321)Menu ID : 1 (0x1)Format : AVCFormat/Info : Advanced Video CodecFormat profile : Main@L3.0Format settings, CABAC : YesFormat settings, ReFrames : 4 framesCodec ID : 27Duration : 1h 19mnBit rate : 2 252 KbpsWidth : 720 pixelsHeight : 576 pixelsDisplay aspect ratio : 4:3Frame rate : 25.000 fpsStandard : PALColor space : YUVChroma subsampling : 4:2:0Bit depth : 8 bitsScan type : MBAFFScan order : Top Field FirstBits/(Pixel*Frame) : 0.217Stream size : 1.25 GiB (85%)Color primaries : BT.601 PALTransfer characteristics : BT.470 System B, BT.470 System GMatrix coefficients : BT.601Color range : Limited
    AudioID : 802 (0x322)Menu ID : 1 (0x1)Format : MPEG AudioFormat version : Version 1Format profile : Layer 2Codec ID : 3Duration : 1h 19mnBit rate mode : ConstantBit rate : 256 KbpsChannel(s) : 2 channelsSampling rate : 48.0 KHzCompression mode : LossyStream size : 145 MiB (10%)Language : English

    Скриншот c названием фильма

    Скриншоты

    Скачать .torrent

    Скачать торрент-файл бесплатно и на максимальной скорости!

    Как скачивать? · Что такое торрент? · Рейтинг и ограничения

    !ВНИМАНИЕ!
    Сайт не распространяет и не хранит электронные версии произведений, а занимается лишь лишь предоставлением доступа к создаваемому пользователями каталогу ссылок на торрент-файлы, которые содержат только списки хеш-сумм, убедительная просьба с жалобами обращаться напрямую к пользователю. Файлы для обмена на трекере предоставлены пользователями сайта, и администрация не несёт ответственности за их содержание. Просьба не заливать файлы, защищенные авторскими правами, а также файлы нелегального содержания!


    _________________
    [Профиль] [ЛС]
    Показать сообщения:    
    Ответить на тему

    Текущее время: Сегодня, в 14:42

    Часовой пояс: GMT + 2



    Вы не можете начинать темы
    Вы не можете отвечать на сообщения
    Вы не можете редактировать свои сообщения
    Вы не можете удалять свои сообщения
    Вы не можете голосовать в опросах
    Вы не можете прикреплять файлы к сообщениям
    Вы не можете скачивать файлы