BitTorrentTracker PerecTracker.org
BitTorrentTracker PerecTracker.org
    
Регистрация  ·  Вход
 
 · 
Забыли пароль?

  • Москва. Центральный округ-4 / Серии: 1-18 из 18 ( Максим Субботин, Игорь Кечаев) [2015, детектив,криминал, SATRip-AVC]

    Ответить на тему
     
    Автор Сообщение

    rechyn

    Создавать темы 10-Сен-2016 15:42

           

    [Цитировать]

    Москва. Центральный округ-4
    --
    Год выпуска: 2015
    Производство: Россия,Кинокомпания «ТВИНДИ»
    Жанр: детектив,криминал
    Продолжительность: 00:44:00
    Субтитры: нет
    --
    Режиссёр: Максим Субботин, Игорь Кечаев
    --
    В ролях: Владимир Меньшов, Сергей Горобченко, Алексей Колган, Анна Пескова, Амаду Мамадаков, Макс Бирюков, Петр Томашевский, Александра Тюфтей, Дарья Фекленко, Серафима Низовская, Анатолий Хропов, Юлия Полынская, Фёдор Румянцев, Илья Щербинин, Анна Леванова, Артём Кобзев, Велимир Русаков, Сергей Коваленко, Ксения Иванова, Дмитрий Янышевский, Игорь Трошин, Валентин Самохин, Ольга Котельникова, Сергей Рублёв, Никита Тарасов, Антон Фёдоров, Анна Карышева, Владимир Царулков, Юлия Юрченко, Кристина Завьялова, Михаил Скачков.
    --
    Описание: Главная нить сюжета детективного сериала «Москва. Центральный округ» — противостояние представителей двух поколений: молодого амбициозного сыщика и майора, настоящего сыскного волка. Главный герой, молодой сыщик Репейников, внук легендарного полковника милиции, должен был ехать во Францию для прохождения службы в Интерполе. Но в последний момент в Интерпол направили кого-то другого, и молодой лейтенант попал на службу в Управление внутренних дел по Центральному округу столицы…
    --
    Все раздачи сериала

    --
    Качество: SATRip-AVC
    Формат: MKV
    Видео кодек: H.264
    Аудио кодек: AC3
    Видео: MPEG-4 AVC, 720х400,25fps,~1600 Кбит/сек,Bits/Pixel 0.222
    Аудио: AC3, 48 kHz, ~192 Kbps, 2 канала

    --

    MI

    Общее
    Уникальный идентификатор : 213028309935238447269611642558719242520 (0xA043C2969C86C52583BEC177856CB118)
    Полное имя : F:\Москва. Центральный округ-4 серия_Москва. Центральный округ-4_rip by_Aleksan55.mkv
    Формат : Matroska
    Версия формата : Version 2
    Размер файла : 574 Мбайт
    Продолжительность : 44 м.
    Общий поток : 1794 Кбит/сек
    Дата кодирования : UTC 2016-08-22 13:41:33
    Программа кодирования : mkvmerge v7.8.0 ('River Man') 32bit built on Apr 3 2015 12:11:22
    Библиотека кодирования : libebml v1.3.1 + libmatroska v1.4.2
    Видео
    Идентификатор : 1
    Формат : AVC
    Формат/Информация : Advanced Video Codec
    Профиль формата : High@L4.1
    Параметр CABAC формата : Да
    Параметр ReFrames формата : 12 кадров
    Идентификатор кодека : V_MPEG4/ISO/AVC
    Продолжительность : 44 м.
    Битрейт : 1600 Кбит/сек
    Ширина : 720 пикселей
    Высота : 400 пикселей
    Соотношение сторон : 16:9
    Режим частоты кадров : Постоянный
    Частота кадров : 25,000 кадров/сек
    Цветовое пространство : YUV
    Субдискретизация насыщенности : 4:2:0
    Битовая глубина : 8 бит
    Тип развёртки : Прогрессивная
    Бит/(Пиксели*Кадры) : 0.222
    Размер потока : 502 Мбайт (87%)
    Библиотека кодирования : x264 core 148 r2638 7599210
    Настройки программы : cabac=1 / ref=12 / deblock=1:-2:-2 / analyse=0x3:0x113 / me=umh / subme=9 / psy=1 / psy_rd=1.00:0.15 / mixed_ref=0 / me_range=48 / chroma_me=1 / trellis=2 / 8x8dct=1 / cqm=0 / deadzone=6,6 / fast_pskip=1 / chroma_qp_offset=-3 / threads=4 / lookahead_threads=4 / sliced_threads=0 / nr=0 / decimate=0 / interlaced=0 / bluray_compat=0 / constrained_intra=0 / bframes=12 / b_pyramid=2 / b_adapt=2 / b_bias=0 / direct=3 / weightb=1 / open_gop=0 / weightp=2 / keyint=250 / keyint_min=25 / scenecut=40 / intra_refresh=0 / rc_lookahead=40 / rc=2pass / mbtree=1 / bitrate=1600 / ratetol=1.0 / qcomp=0.80 / qpmin=0 / qpmax=69 / qpstep=4 / cplxblur=20.0 / qblur=0.5 / ip_ratio=1.10 / aq=1:0.50
    Default : Да
    Forced : Нет
    Цветовой диапазон : Limited
    Основные цвета : BT.601 PAL
    Характеристики трансфера : BT.470 System B, BT.470 System G
    Коэффициенты матрицы : BT.601
    Аудио
    Идентификатор : 2
    Формат : AC-3
    Формат/Информация : Audio Coding 3
    Расширение режима : CM (complete main)
    Параметр Endianness формата : Big
    Идентификатор кодека : A_AC3
    Продолжительность : 44 м.
    Вид битрейта : Постоянный
    Битрейт : 192 Кбит/сек
    Каналы : 2 канала
    Расположение каналов : Front: L R
    Частота : 48,0 КГц
    Метод сжатия : С потерями
    Размер потока : 61,5 Мбайт (11%)
    Default : Да
    Forced : Нет

    Скриншоты

    --Рекламы нет.--
    Скачать .torrent

    Скачать торрент-файл бесплатно и на максимальной скорости!

    Как скачивать? · Что такое торрент? · Рейтинг и ограничения

    !ВНИМАНИЕ!
    Сайт не распространяет и не хранит электронные версии произведений, а занимается лишь лишь предоставлением доступа к создаваемому пользователями каталогу ссылок на торрент-файлы, которые содержат только списки хеш-сумм, убедительная просьба с жалобами обращаться напрямую к пользователю. Файлы для обмена на трекере предоставлены пользователями сайта, и администрация не несёт ответственности за их содержание. Просьба не заливать файлы, защищенные авторскими правами, а также файлы нелегального содержания!


    _________________
    [Профиль] [ЛС]
    Показать сообщения:    
    Ответить на тему

    Текущее время: Сегодня, в 04:16

    Часовой пояс: GMT + 2



    Вы не можете начинать темы
    Вы не можете отвечать на сообщения
    Вы не можете редактировать свои сообщения
    Вы не можете удалять свои сообщения
    Вы не можете голосовать в опросах
    Вы не можете прикреплять файлы к сообщениям
    Вы не можете скачивать файлы