BitTorrentTracker PerecTracker.org
BitTorrentTracker PerecTracker.org
    
Регистрация  ·  Вход
 
 · 
Забыли пароль?

  • Центральная больница / Серии: 1-60 из 60 (Вера Яковенко) [2016, Медицина, драма, мелодрама, WEBRip]

    Ответить на тему
     
    Автор Сообщение

    rechyn

    Создавать темы 10-Сен-2016 15:36

           

    [Цитировать]

    Центральная больница «Осторожно. Побочный эффект - любовь»
    Год выпуска: 2016
    Производство: 1+1 Продакшн
    Жанр: Медицина, драма, мелодрама
    Продолжительность: 00:46:00
    Субтитры: нет
    Режиссёр: Вера Яковенко
    В ролях: Марк Дробот, Станислав Боклан, Ольга Гришина, Ирина Новак, Андрей Попков (II), Тарас Мельничук, Александра Киреева, Денис Роднянский, Дмитрий Соловьёв (IV), Мария Довгань, Юрий Радионов (II), Наталия Морозова-Шимада, Ирина Ткаченко, Владислав Онищенко, Вячеслав Николенко, Тамара Морозова, Валентина Пугачёва (II), Юлия Заремба, Тарас Цымбалюк, Сергей Пономаренко (III), Инга Нагорная, Валерий Сковронский, Екатерина Варченко, Вячеслав Хостикоев, Виктор Воронцов, Мария Тарасова (II), Алексей Крылов, Владимир Паляница, Екатерина Гайворонская, Михаил Аугуст, Ахтем Сейтаблаев, Алексей Прокопенко (II), Алексей Агеев (II), Александра Польгуй, Алиса Лукшина, Сергей Кучера
    Описание: "Центральная больница" - это медицинская драма, история врачебных будней, которые по воле судьбы проводят время плечо о плечо в лечебных учреждениях. Медицинская драма расскажет о ежедневных и ежечасных врачебных подвигах, о героизме и предательстве близких, а также о том, что главное в человеческих отношениях - это не потерять веру и надежду в лучшее. Здесь представлены самые искренние эмоции, истории из жизни, которые отображают будни практически любой современной больницы. Которая является собой переплетение трагических и героических ситуаций. Идея сериала взята с бельгийского аналога и являет собой рассказ о жизни каждого из пациентов. Что в голове у каждого из них, о чем переживают люди в клинике, о чем они думают и чем живут? Именно об этом расскажет сериал. Перед зрителем будет развернута интригующая панорама событий, которая происходит в жизни врачей центральной городской больницы, а также пациентов. Медики - это обычные люди, в их жизни масса проблем, переживаний, но на работе им необходимо проявлять бодрость духа и не показывать слабость.Ведь конфликт между врачами - отображается на всем коллективе. Продумывать сюжеты для такого сериала нет никакой необходимости, ведь главное - это попробовать отобразить сочетание сразу нескольких человеческих эмоций : любви и отчаянья, радости и искренней боли, твердости духа и не только. Больница - это место, где трагическое переплетается с героическим, а переживания и болезненные потери идут настолько тесно друг к другу, что придумывать ничего и нет необходимости.
    -
    Доп. информация: Реклама отсутствует!-Все раздачи сериала:
    Сэмпл: https://cloud.mail.ru/public/5h8Y/iL8yQs5Wq С 1 по 9 серии.
    Сэмпл: http://multi-up.com/1114918 С 10 по 60 серии.
    Качество: WEBRip
    Формат: AVI
    Видео кодек: XviD
    Аудио кодек: MP3, с 9 серии АС3
    Видео: 720x400, 25 fps, XviD, ~1500 kbps, 0.229 bit/pixel
    Аудио: 44,1 kHz, MPEG Layer 3, 2 ch, 192 kbps
    Аудио С 9 серии: АС3, 2 ch, 192 kbps

    MI

    Общее
    Полное имя : E:\Сериалы (2014)\Центральная больница (2016) WEB-DLRip\Центральная больница.(01.seriya).2016.XviD.WEB-DLRip.Files-x.avi
    Формат : AVI
    Формат/Информация : Audio Video Interleave
    Размер файла : 576 Мбайт
    Продолжительность : 45 м.
    Общий поток : 1776 Кбит/сек
    Программа кодирования : VirtualDubMod 1.5.10.3 | www.virtualdub-fr.org || (build 2550/release)
    Библиотека кодирования : VirtualDubMod build 2550/release
    Видео
    Идентификатор : 0
    Формат : MPEG-4 Visual
    Профиль формата : Advanced Simple@L5
    Параметр BVOP формата : 1
    Параметр QPel формата : Нет
    Параметр GMC формата : Без точки перехода
    Параметр матрицы формата : Default (MPEG)
    Идентификатор кодека : XVID
    Идентификатор кодека/Подсказка : XviD
    Продолжительность : 45 м.
    Битрейт : 1574 Кбит/сек
    Ширина : 720 пикселей
    Высота : 400 пикселей
    Соотношение сторон : 16:9
    Частота кадров : 25,000 кадров/сек
    Цветовое пространство : YUV
    Субдискретизация насыщенности : 4:2:0
    Битовая глубина : 8 бит
    Тип развёртки : Прогрессивная
    Метод сжатия : С потерями
    Бит/(Пиксели*Кадры) : 0.219
    Размер потока : 510 Мбайт (89%)
    Библиотека кодирования : XviD 1.2.1 (UTC 2008-12-04)
    Аудио
    Идентификатор : 1
    Формат : MPEG Audio
    Версия формата : Version 1
    Профиль формата : Layer 3
    Режим : Joint stereo
    Идентификатор кодека : 55
    Идентификатор кодека/Подсказка : MP3
    Продолжительность : 45 м.
    Вид битрейта : Постоянный
    Битрейт : 192 Кбит/сек
    Каналы : 2 канала
    Частота : 44,1 КГц
    Метод сжатия : С потерями
    Размер потока : 62,3 Мбайт (11%)
    Выравнивание : Разделение по промежуткам
    Продолжительность промежутка : 40 мс. (1,00 видеокадр)
    Время предзагрузки промежутка : 500 мс.
    Библиотека кодирования : LAME3.99r
    Настройки программы : -m j -V 4 -q 2 -lowpass 18.6 -b 192-c 9 серии
    Общее
    Полное имя : F:\Video\Центральная больница (2016) WEB-DLRip.Centralnaja.bolnica.2016.WEB-DLRip.Files-x.avi
    Формат : AVI
    Формат/Информация : Audio Video Interleave
    Размер файла : 550 Мбайт
    Продолжительность : 42 м.
    Общий поток : 1796 Кбит/сек
    Программа кодирования : VirtualDubMod 1.5.10.3 | www.virtualdub-fr.org || (build 2550/release)
    Библиотека кодирования : VirtualDubMod build 2550/release
    Видео
    Идентификатор : 0
    Формат : MPEG-4 Visual
    Профиль формата : Advanced Simple@L5
    Параметр BVOP формата : 1
    Параметр QPel формата : Нет
    Параметр GMC формата : Без точки перехода
    Параметр матрицы формата : Выборочная
    Идентификатор кодека : XVID
    Идентификатор кодека/Подсказка : XviD
    Продолжительность : 42 м.
    Битрейт : 1594 Кбит/сек
    Ширина : 720 пикселей
    Высота : 400 пикселей
    Соотношение сторон : 16:9
    Частота кадров : 25,000 кадров/сек
    Цветовое пространство : YUV
    Субдискретизация насыщенности : 4:2:0
    Битовая глубина : 8 бит
    Тип развёртки : Прогрессивная
    Метод сжатия : С потерями
    Бит/(Пиксели*Кадры) : 0.221
    Размер потока : 488 Мбайт (89%)
    Библиотека кодирования : XviD 73
    Аудио
    Идентификатор : 1
    Формат : AC-3
    Формат/Информация : Audio Coding 3
    Расширение режима : CM (complete main)
    Параметр Endianness формата : Big
    Идентификатор кодека : 2000
    Продолжительность : 42 м.
    Вид битрейта : Постоянный
    Битрейт : 192 Кбит/сек
    Каналы : 2 канала
    Расположение каналов : Front: L R
    Частота : 48,0 КГц
    Битовая глубина : 16 бит
    Метод сжатия : С потерями
    Размер потока : 58,8 Мбайт (11%)
    Выравнивание : Разделение по промежуткам
    Продолжительность промежутка : 40 мс. (1,00 видеокадр)
    Время предзагрузки промежутка : 500 мс.

    Скриншоты

    Скачать .torrent

    Скачать торрент-файл бесплатно и на максимальной скорости!

    Как скачивать? · Что такое торрент? · Рейтинг и ограничения

    !ВНИМАНИЕ!
    Сайт не распространяет и не хранит электронные версии произведений, а занимается лишь лишь предоставлением доступа к создаваемому пользователями каталогу ссылок на торрент-файлы, которые содержат только списки хеш-сумм, убедительная просьба с жалобами обращаться напрямую к пользователю. Файлы для обмена на трекере предоставлены пользователями сайта, и администрация не несёт ответственности за их содержание. Просьба не заливать файлы, защищенные авторскими правами, а также файлы нелегального содержания!


    _________________
    [Профиль] [ЛС]
    Показать сообщения:    
    Ответить на тему

    Текущее время: Сегодня, в 08:09

    Часовой пояс: GMT + 2



    Вы не можете начинать темы
    Вы не можете отвечать на сообщения
    Вы не можете редактировать свои сообщения
    Вы не можете удалять свои сообщения
    Вы не можете голосовать в опросах
    Вы не можете прикреплять файлы к сообщениям
    Вы не можете скачивать файлы