BitTorrentTracker PerecTracker.org
BitTorrentTracker PerecTracker.org
    
Регистрация  ·  Вход
 
 · 
Забыли пароль?

  • Любимая учительница / Серии: 1-8 из 8 (Леонид Белозорович) [2016, драма, криминал, HDTVRip]

    Ответить на тему
     
    Автор Сообщение

    rechyn

    Создавать темы 10-Сен-2016 15:31

           

    [Цитировать]

    Любимая учительница
    Год выпуска: 2016
    Производство: Россия, Украина, Film.UA, Pronto Film
    Жанр: драма, криминал
    Продолжительность: 00:49:00
    Субтитры: нет
    Режиссёр: Леонид Белозорович
    В ролях: Алина Сергеева, Олег Гаас, Ольга Радчук, Алена Узлюк, Матвей Зубалевич, Владимир Коваль (II), Алексей Нагрудный, Роман Мацюта, Анна Адамович, Ирина Мак, Борис Георгиевский, Любовь Солодова, Анстасия Шульга, Мария Трепикова, Владимир Осадчий, Валерий Астахов, Валерия Гуляева, Олег Масленников, Екатерина Марченко
    Описание: С появлением в школе новой учительницы Ульяны Сергеевны жизнь ученика 11-го класса Игната Калинина меняется раз и навсегда. С первого взгляда юноша понимает, что она - любовь всей его жизни. Однако Ульяна не воспринимает чувства мальчика всерьез. Так проходит учебный год. На выпускном вечере происходит драка, после которой в милицейском участке погибает лучший друг Игната. Это убийство "вешают" на Калинина. Единственное, что помогает Игнату выжить в тюрьме - его первая школьная любовь...
    Все раздачи сериала
    Сэмпл
    Релиз - Generalfilm (olegka7373)
    Рекламы нет

    Качество: HDTVRip
    Формат: AVI
    Видео кодек: XviD
    Аудио кодек: AC3
    Видео: 720x400 (1.80:1), 25 fps, XviD build 73 ~1799 kbps avg, 0.25 bit/pixel
    Аудио: 48 kHz, AC3 Dolby Digital, 2/0 (L,R) ch, ~192 kbps-

    MI

    Общее
    Полное имя : D:\Ljubimaja uchitel'nica.HDTVRip.GeneralFilm\Ljubimaja uchitel'nica.01.HDTVRip.GeneralFilm.avi
    Формат : AVI
    Формат/Информация : Audio Video Interleave
    Размер файла : 699 Мбайт
    Продолжительность : 48 м.
    Общий поток : 2002 Кбит/сек
    Программа кодирования : VirtualDubMod 1.5.10.3 (build 2550/release)
    Библиотека кодирования : VirtualDubMod build 2550/release
    Видео
    Идентификатор : 0
    Формат : MPEG-4 Visual
    Профиль формата : Advanced Simple@L5
    Параметр BVOP формата : 1
    Параметр QPel формата : Нет
    Параметр GMC формата : Без точки перехода
    Параметр матрицы формата : Выборочная
    Идентификатор кодека : XVID
    Идентификатор кодека/Подсказка : XviD
    Продолжительность : 48 м.
    Битрейт : 1800 Кбит/сек
    Ширина : 720 пикселей
    Высота : 400 пикселей
    Соотношение сторон : 16:9
    Частота кадров : 25,000 кадров/сек
    Цветовое пространство : YUV
    Субдискретизация насыщенности : 4:2:0
    Битовая глубина : 8 бит
    Тип развёртки : Прогрессивная
    Метод сжатия : С потерями
    Бит/(Пиксели*Кадры) : 0.250
    Размер потока : 628 Мбайт (90%)
    Библиотека кодирования : XviD 73
    Аудио
    Идентификатор : 1
    Формат : AC-3
    Формат/Информация : Audio Coding 3
    Расширение режима : CM (complete main)
    Параметр Endianness формата : Big
    Идентификатор кодека : 2000
    Продолжительность : 48 м.
    Вид битрейта : Постоянный
    Битрейт : 192 Кбит/сек
    Каналы : 2 канала
    Расположение каналов : Front: L R
    Частота : 48,0 КГц
    Частота кадров : 31,250 кадров/сек (1536 spf)
    Метод сжатия : С потерями
    Размер потока : 67,0 Мбайт (10%)
    Выравнивание : Разделение по промежуткам
    Продолжительность промежутка : 40 мс. (1,00 видеокадр)
    Время предзагрузки промежутка : 500 мс.

    Скриншоты

    -
    Скачать .torrent

    Скачать торрент-файл бесплатно и на максимальной скорости!

    Как скачивать? · Что такое торрент? · Рейтинг и ограничения

    !ВНИМАНИЕ!
    Сайт не распространяет и не хранит электронные версии произведений, а занимается лишь лишь предоставлением доступа к создаваемому пользователями каталогу ссылок на торрент-файлы, которые содержат только списки хеш-сумм, убедительная просьба с жалобами обращаться напрямую к пользователю. Файлы для обмена на трекере предоставлены пользователями сайта, и администрация не несёт ответственности за их содержание. Просьба не заливать файлы, защищенные авторскими правами, а также файлы нелегального содержания!


    _________________
    [Профиль] [ЛС]
    Показать сообщения:    
    Ответить на тему

    Текущее время: Сегодня, в 11:50

    Часовой пояс: GMT + 2



    Вы не можете начинать темы
    Вы не можете отвечать на сообщения
    Вы не можете редактировать свои сообщения
    Вы не можете удалять свои сообщения
    Вы не можете голосовать в опросах
    Вы не можете прикреплять файлы к сообщениям
    Вы не можете скачивать файлы