BitTorrentTracker PerecTracker.org
BitTorrentTracker PerecTracker.org
    
Регистрация  ·  Вход
 
 · 
Забыли пароль?

  • [ATV3] Повелители снов (Ирина Багрова) [2016, Россия, Комедия, фэнтези, WEB-DL, HD (1080p)] Original

    Ответить на тему
     
    Автор Сообщение

    rechyn

    Создавать темы 09-Сен-2016 14:50

           

    [Цитировать]

    Повелители снов
    «А что снится Вам?»
    3.605 / 10
    -Год выпуска: 2016
    Страна: Россия
    Жанр: Комедия, фэнтези
    Продолжительность: 01:16:44
    Перевод: Не требуется
    Оригинальная аудиодорожка: Есть
    Cубтитры: Нет
    Режиссёр: Ирина Багрова
    Сценарий: Роман Качанов, Ирина Багрова
    Продюсер: Ирина Багрова
    Оператор: Андрей Найденов
    Композитор: Павел Есенин
    Художник: Евгений Кузнецов, Кристина Логачева
    Монтаж: Александр Иванов, Ольга Прошкина
    В ролях: Александр Балуев, Дмитрий Ендальцев, Анастасия Пронина, Дмитрий Соколов, Софья Лебедева, Валентина Оленева, Сергей Степанченко, Светлана Бельская, Михаил Водзуми, Илья Малаков
    Бюджет: 40 000 000 руб.
    Сборы в России: $3 266
    Мировая премьера:
    Описание: О них не пишут в газетах, но они существуют! Да-да! Специалисты «Корпорации снов» предложат сон на ваш вкус, а если надо, осуществят его передачу на расстоянии. Это ноу-хау перевернет мир, как телефон или интернет.
    Но чем закончится безумный и опасный эксперимент?!-Качество исходника: WEB-DL 1080p
    Качество: WEB-DL
    Тип: HD (1080p)
    Контейнер: M4V
    Видео: H.264, 1920x804, 2.40:1, 4 554 Kbps, 25.000 fps
    Аудио 1: Русский/Оригинальная дорожка , AAC / 2.0 / 160 Kbps / 48.0 KHz
    Аудио 2: Русский/Оригинальная дорожка , AC-3 / 5.1 / 384 Kbps / 48.0 KHz
    -

    iTunes Meta Tags

    Sort Name: Повелители снов
    XID: Apple:vendor_id:2016-855928
    contentID: 1146566917
    Copyright: © 2016 Paradise
    Screenwriters: Роман Качанов, Ирина Багрова
    Producers: Ирина Багрова
    Director: Ирина Багрова
    Cast: Александр Балуев, Дмитрий Ендальцев, Анастасия Пронина, Дмитрий Соколов, Софья Лебедева, Валентина Оленева, Сергей Степанченко, Светлана Бельская, Михаил Водзуми, Илья Малаков
    Studio: Konfetti
    Rating: 134
    Long Description: О них не пишут в газетах, но они существуют! Да-да! Специалисты "Корпорации снов" предложат сон на ваш вкус, а если надо, осуществят его передачу на расстоянии. Это ноу-хау перевернет мир, как телефон или интернет.
    Но чем закончится безумный и опасный эксперимент?!
    Description: О них не пишут в газетах, но они существуют! Да-да! Специалисты "Корпорации снов" предложат сон на ваш вкус, а если надо, осуществят его передачу на расстоянии. Это ноу-хау перевернет мир, как телефон или интернет.
    Но чем закончится безумный и опасный эксперимент?!
    Release Date: 2016-01-01T08:00:00Z
    Genre: Русское кино
    Artist: Ирина Багрова
    Name: Повелители снов

    MediaInfo

    General
    Complete name : /Users/imac/HandBrake/Poveliteli.Snov.WEB-DL.1080p.m4v
    Format : MPEG-4
    Codec ID : M4V
    File size : 2.74 GiB
    Duration : 1h 16mn
    Overall bit rate mode : Variable
    Overall bit rate : 5 103 Kbps
    Movie name : Повелители снов
    Performer : Ирина Багрова
    Director : Ирина Багрова
    Actor : Александр Балуев / Дмитрий Ендальцев / Анастасия Пронина / Дмитрий Соколов / Софья Лебедева / Валентина Оленева / Сергей Степанченко / Светлана Бельская / Михаил Водзуми / Илья Малаков
    Screenplay by : Роман Качанов / Ирина Багрова
    Producer : Ирина Багрова
    Production studio : Konfetti
    Genre : Русское кино
    ContentType : Short Film
    Description : О них не пишут в газетах, но они существуют! Да-да! Специалисты "Корпорации снов" предложат сон на ваш вкус, а если надо, осуществят его передачу на расстоянии. Это ноу-хау перевернет мир, как телефон или интернет. / Но чем закончится безумный и опасный эксперимент?!
    Recorded date : UTC 2016-01-01 08:00:00
    Encoded date : UTC 2016-09-09 09:57:35
    Tagged date : UTC 2016-09-09 09:59:24
    Copyright : © 2016 Paradise
    Cover : Yes
    Rating : None
    Title/Sort : Повелители снов
    LongDescription : О них не пишут в газетах, но они существуют! Да-да! Специалисты "Корпорации снов" предложат сон на ваш вкус, а если надо, осуществят его передачу на расстоянии. Это ноу-хау перевернет мир, как телефон или интернет. / Но чем закончится безумный и опасный эксперимент?!
    AppleStoreCatalogID : 1146566917
    Vendor : Apple:vendor_id:2016-855928
    ContentRating : ru-movie|12+|200|
    Video #1
    ID : 1
    Format : AVC
    Format/Info : Advanced Video Codec
    Format profile : High@L4
    Format settings, CABAC : Yes
    Format settings, ReFrames : 5 frames
    Codec ID : avc1
    Codec ID/Info : Advanced Video Coding
    Duration : 1h 16mn
    Bit rate : 4 554 Kbps
    Width : 1 920 pixels
    Height : 804 pixels
    Display aspect ratio : 2.40:1
    Frame rate mode : Constant
    Frame rate : 25.000 fps
    Color space : YUV
    Chroma subsampling : 4:2:0
    Bit depth : 8 bits
    Scan type : Progressive
    Bits/(Pixel*Frame) : 0.118
    Stream size : 2.44 GiB (89%)
    Title : Main Program
    Language : Russian
    Encoded date : UTC 2016-09-09 09:57:35
    Tagged date : UTC 2016-09-09 09:57:39
    Color range : Limited
    Color primaries : BT.709
    Transfer characteristics : BT.709
    Matrix coefficients : BT.709
    Video #2
    ID : 5
    Format : JPEG
    Codec ID : jpeg
    Duration : 1h 16mn
    Bit rate mode : Variable
    Bit rate : 1 168 bps
    Width : 640 pixels
    Height : 268 pixels
    Display aspect ratio : 2.40:1
    Frame rate mode : Variable
    Frame rate : 0.003 fps
    Minimum frame rate : 0.002 fps
    Maximum frame rate : 0.004 fps
    Color space : YUV
    Chroma subsampling : 4:2:0
    Bit depth : 8 bits
    Compression mode : Lossy
    Bits/(Pixel*Frame) : 2.270
    Stream size : 618 KiB (0%)
    Title : Chapter Images
    Language : Russian
    Encoded date : UTC 2016-09-09 09:57:45
    Tagged date : UTC 2016-09-09 09:57:45
    Audio #1
    ID : 2
    Format : AAC
    Format/Info : Advanced Audio Codec
    Format profile : LC
    Codec ID : 40
    Duration : 1h 16mn
    Bit rate mode : Variable
    Bit rate : 157 Kbps
    Maximum bit rate : 233 Kbps
    Channel(s) : 2 channels
    Channel positions : Front: L R
    Sampling rate : 48.0 KHz
    Compression mode : Lossy
    Stream size : 86.1 MiB (3%)
    Title : Russian Stereo
    Language : Russian
    Encoded date : UTC 2016-09-09 09:57:35
    Tagged date : UTC 2016-09-09 09:57:40
    Audio #2
    ID : 3
    Format : AC-3
    Format/Info : Audio Coding 3
    Mode extension : CM (complete main)
    Format settings, Endianness : Big
    Codec ID : ac-3
    Duration : 1h 16mn
    Bit rate mode : Constant
    Bit rate : 384 Kbps
    Channel(s) : 6 channels
    Channel positions : Front: L C R, Side: L R, LFE
    Sampling rate : 48.0 KHz
    Bit depth : 16 bits
    Compression mode : Lossy
    Stream size : 211 MiB (8%)
    Title : Russian DD 5.1
    Language : Russian
    Encoded date : UTC 2016-09-09 09:57:35
    Tagged date : UTC 2016-09-09 09:57:39
    Menu #1
    00:00:00.000 : 1
    00:04:50.360 : 2
    00:10:33.520 : 3
    00:17:45.560 : 4
    00:24:50.000 : 5
    00:32:28.080 : 6
    00:37:15.360 : 7
    00:43:01.040 : 8
    00:49:27.600 : 9
    00:53:26.520 : 10
    00:59:24.520 : 11
    01:04:08.480 : 12
    01:11:10.280 : 13
    Menu #2
    ID : 4
    Codec ID : text
    Duration : 1h 16mn
    Language : Russian
    Encoded date : UTC 2016-09-09 09:57:40
    Tagged date : UTC 2016-09-09 09:57:40
    00:00:00.000 : 1
    00:04:50.360 : 2
    00:10:33.520 : 3
    00:17:45.560 : 4
    00:24:50.000 : 5
    00:32:28.080 : 6
    00:37:15.360 : 7
    00:43:01.040 : 8
    00:49:27.600 : 9
    00:53:26.520 : 10
    00:59:24.520 : 11
    01:04:08.480 : 12
    01:11:10.280 : 13
    Bit rate mode : VBR

    Скриншоты


    -

    Релиз подготовлен для просмотра на Apple TV, iPad, iPhone, iPod Touch.
    Для просмотра данного релиза на компьютере с ОС Windows рекомендуется использовать VLC media player
    Скачать .torrent

    Скачать торрент-файл бесплатно и на максимальной скорости!

    Как скачивать? · Что такое торрент? · Рейтинг и ограничения

    !ВНИМАНИЕ!
    Сайт не распространяет и не хранит электронные версии произведений, а занимается лишь лишь предоставлением доступа к создаваемому пользователями каталогу ссылок на торрент-файлы, которые содержат только списки хеш-сумм, убедительная просьба с жалобами обращаться напрямую к пользователю. Файлы для обмена на трекере предоставлены пользователями сайта, и администрация не несёт ответственности за их содержание. Просьба не заливать файлы, защищенные авторскими правами, а также файлы нелегального содержания!


    _________________
    [Профиль] [ЛС]
    Показать сообщения:    
    Ответить на тему

    Текущее время: Сегодня, в 07:06

    Часовой пояс: GMT + 2



    Вы не можете начинать темы
    Вы не можете отвечать на сообщения
    Вы не можете редактировать свои сообщения
    Вы не можете удалять свои сообщения
    Вы не можете голосовать в опросах
    Вы не можете прикреплять файлы к сообщениям
    Вы не можете скачивать файлы