BitTorrentTracker PerecTracker.org
BitTorrentTracker PerecTracker.org
    
Регистрация  ·  Вход
 
 · 
Забыли пароль?

  • Последняя минута / Äkkilähtö (Тийна Люми / Tiina Lymi) [2016, Финляндия, мелодрама, комедия, BDRip] AVO (Карповский)

    Ответить на тему
     
    Автор Сообщение

    rechyn

    Создавать темы 09-Сен-2016 14:50

           

    [Цитировать]

    Последняя минута / Äkkilähtö
    Страна: Финляндия
    Студия: Solar Films
    Жанр: Мелодрама, комедия
    Год выпуска: 2016
    Продолжительность: 01:38:41
    Перевод 1: Авторский (одноголосый закадровый) Антон Карповский
    Cубтитры: нет
    Оригинальная аудиодорожка: нет
    Режиссер: Тийна Люми / Tiina Lymi
    В ролях: Лотта Кайхю, Веера В. Вило, Юсси Ватанен, Иина Куустонен, Рупи Олениус, Вилле Тиихонен, Антти Холма, Эмилия Синисало, Мария Пакален, Джарно Пимпери
    Описание: Женщина-риэлтор Катри (Lotta Kaihua) собирается в отпуск с подружками, но жених неожиданно делает ей предложение! И вот оно - женское счастье уже так близко! Но придя в гости к жениху, она обнаруживает там каких -то посторонних людей, сам жених на её глазах увозит свою уже сильно беременную любовницу в роддом, оставив в квартире сумку с кучей Евро.... Катри хватает сумку с деньгами у пускается наутёк, но к ней цепляется соседская девочка-подросток, мать которой попала в больницу от передоза, а тиран-отчим ведет себя крайне неадекватно. В результате, начинается безумная погоня отчима и жениха за Катри, девочкой и сумкой денег...
    Дополнительная информация:
    Автор релиза - ylnian
    Заказ перевода у Антона Карповского (август 2016) - ylnian
    За сборку дороги спасибо rammzez
    Источник для рипа - Blu-Ray (FIN) - Äkkilähtö.2016.1080p.Blu-ray.AVC.DTS-HD.MA 5.1-HUBAA
    Описание - из рецензии Антона Карповского


    Сэмпл: https://yadi.sk/i/kcUXv0bjupey2
    Качество видео: BDRip
    Формат видео: AVI
    Видео: XviD, 720x304 (2,35:1), 23.976 fps, 1661 kbps, 0.317 bit/pixel
    Аудио: Русский AC3, 48000 Гц, 6ch, 448 kbps

    MediaInfo

    Общее
    Полное имя : F:\Akkilahto.2016.BDRip-ylnian.avi
    Формат : AVI
    Формат/Информация : Audio Video Interleave
    Размер файла : 1,46 Гбайт
    Продолжительность : 1 ч. 38 м.
    Общий поток : 2119 Кбит/сек
    Программа кодирования : VirtualDubMod 1.5.10.2 (build 2540/release)
    Библиотека кодирования : VirtualDubMod build 2540/release
    Видео
    Идентификатор : 0
    Формат : MPEG-4 Visual
    Профиль формата : Advanced Simple@L5
    Параметр BVOP формата : 1
    Параметр QPel формата : Нет
    Параметр GMC формата : Без точки перехода
    Параметр матрицы формата : Default (MPEG)
    Идентификатор кодека : XVID
    Идентификатор кодека/Подсказка : XviD
    Продолжительность : 1 ч. 38 м.
    Битрейт : 1661 Кбит/сек
    Ширина : 720 пикселей
    Высота : 304 пикселя
    Соотношение сторон : 2,35:1
    Частота кадров : 23,976 (24000/1001) кадра/сек
    Цветовое пространство : YUV
    Субдискретизация насыщенности : 4:2:0
    Битовая глубина : 8 бит
    Тип развёртки : Прогрессивная
    Метод сжатия : С потерями
    Бит/(Пиксели*Кадры) : 0.317
    Размер потока : 1,15 Гбайт (78%)
    Библиотека кодирования : XviD 67
    Аудио
    Идентификатор : 1
    Формат : AC-3
    Формат/Информация : Audio Coding 3
    Расширение режима : CM (complete main)
    Параметр Endianness формата : Big
    Идентификатор кодека : 2000
    Продолжительность : 1 ч. 38 м.
    Вид битрейта : Постоянный
    Битрейт : 448 Кбит/сек
    Каналы : 6 каналов
    Расположение каналов : Front: L C R, Side: L R, LFE
    Частота : 48,0 КГц
    Частота кадров : 31,250 кадров/сек (1536 spf)
    Метод сжатия : С потерями
    Размер потока : 316 Мбайт (21%)
    Выравнивание : Разделение по промежуткам
    Продолжительность промежутка : 42 мс. (1,00 видеокадр)
    Время предзагрузки промежутка : 500 мс.
    Заголовок : RUS - AVO - Karpovsky

    Скриншот c названием фильма

    Скриншоты

    Скачать .torrent

    Скачать торрент-файл бесплатно и на максимальной скорости!

    Как скачивать? · Что такое торрент? · Рейтинг и ограничения

    !ВНИМАНИЕ!
    Сайт не распространяет и не хранит электронные версии произведений, а занимается лишь лишь предоставлением доступа к создаваемому пользователями каталогу ссылок на торрент-файлы, которые содержат только списки хеш-сумм, убедительная просьба с жалобами обращаться напрямую к пользователю. Файлы для обмена на трекере предоставлены пользователями сайта, и администрация не несёт ответственности за их содержание. Просьба не заливать файлы, защищенные авторскими правами, а также файлы нелегального содержания!


    _________________
    [Профиль] [ЛС]
    Показать сообщения:    
    Ответить на тему

    Текущее время: Сегодня, в 23:57

    Часовой пояс: GMT + 2



    Вы не можете начинать темы
    Вы не можете отвечать на сообщения
    Вы не можете редактировать свои сообщения
    Вы не можете удалять свои сообщения
    Вы не можете голосовать в опросах
    Вы не можете прикреплять файлы к сообщениям
    Вы не можете скачивать файлы