BitTorrentTracker PerecTracker.org
BitTorrentTracker PerecTracker.org
    
Регистрация  ·  Вход
 
 · 
Забыли пароль?

  • Хорошее убийство / Good Kill (Эндрю Никкол / Andrew Niccol) [2014, США, Драма, военный, BDRip] MVO (НТВ+)

    Ответить на тему
     
    Автор Сообщение

    Light

    Создавать темы 09-Сен-2016 14:50

           

    [Цитировать]

    Хорошее убийство / Good Kill«If you never face your enemy, how can you face yourself»--Страна: США
    Жанр: Драма, военный
    Год выхода: 2014
    Продолжительность: 01:42:48
    Перевод: Профессиональный (многоголосый, закадровый) |НТВ+|
    Субтитры: Нет
    Режиссер: Эндрю Никкол / Andrew Niccol
    В ролях: Итан Хоук, Брюс Гринвуд, Зои Кравиц, Джейк Эйбел, Дженьюэри Джонс, Fatima El Bahraquy, El Khttabi Abdelouahab, Райан Монтано, Дилан Кенин, Стэффорд Дуглас
    О фильме: Действие фильма развернется вокруг летчика, управляющего беспилотным истребителем из Лос-Анджелеса. Каждый день он атакует талибов на другом конце земного шара, а по вечерам отправляется домой, где его ждут скандалы с женой и детьми. Устав от такой жизни, главный герой начинает сомневаться в правильности своей миссии. Ведь сколько бы террористов он не убил, им на смену приходят новые.

    Раздача от:
    Автор рипа: HRIME
    Сэмпл: скачать
    Формат: AVI
    Качество: BDRip (источник: BLUEBIRD - Good Kill / 1080p)
    Кодек: XviD, build 67 codec
    Видео: 720 x 304; 23.976 fps; 2122 kbps; 0.404 bit/pixel
    Аудио #1: |RUS| AC3 Dolby Digital; 448 Kbps; 6 channels; 48 KHz
    Аудио #2: |ENG| AC3 Dolby Digital; 448 Kbps; 6 channels; 48 KHz
    Размер: 2232 Mb (1/2 DVD)-
    -

    Скриншоты


    Media Info

    Complete name                            : Horoshee.Ubiistvo.2014.DUAL.BDRip.XviD.AC3.-HQ-ViDEO.avi
    Format                                   : AVI
    Format/Info                              : Audio Video Interleave
    Format profile                           : OpenDML
    File size                                : 2.18 GiB
    Duration                                 : 1h 42mn
    Overall bit rate                         : 3 036 Kbps
    Movie name                               : Good Kill (2014) by Andrew Niccol
    Director                                 : HRIME
    Writing application                      : VirtualDubMod 1.5.10.2 (build 2542/release)
    Original source form/Name                : Movie
    Copyright                                : HQ-ViDEO
    Comment                                  : 06.08.2016
    Video
    ID                                       : 0
    Format                                   : MPEG-4 Visual
    Format profile                           : Advanced Simple@L5
    Format settings, BVOP                    : 1
    Format settings, QPel                    : No
    Format settings, GMC                     : No warppoints
    Format settings, Matrix                  : Custom
    Codec ID                                 : XVID
    Codec ID/Hint                            : XviD
    Duration                                 : 1h 42mn
    Bit rate                                 : 2 122 Kbps
    Width                                    : 720 pixels
    Height                                   : 304 pixels
    Display aspect ratio                     : 2.35:1
    Frame rate                               : 23.976 fps
    Color space                              : YUV
    Chroma subsampling                       : 4:2:0
    Bit depth                                : 8 bits
    Scan type                                : Progressive
    Compression mode                         : Lossy
    Bits/(Pixel*Frame)                       : 0.404
    Stream size                              : 1.52 GiB (70%)
    Writing library                          : XviD 67
    Audio #1
    ID                                       : 1
    Format                                   : AC-3
    Format/Info                              : Audio Coding 3
    Mode extension                           : CM (complete main)
    Codec ID                                 : 2000
    Duration                                 : 1h 42mn
    Bit rate mode                            : Constant
    Bit rate                                 : 448 Kbps
    Channel(s)                               : 6 channels
    Channel positions                        : Front: L C R, Side: L R, LFE
    Sampling rate                            : 48.0 KHz
    Bit depth                                : 16 bits
    Compression mode                         : Lossy
    Stream size                              : 329 MiB (15%)
    Alignment                                : Split accross interleaves
    Interleave, duration                     : 42 ms (1.00 video frame)
    Interleave, preload duration             : 500 ms
    Audio #2
    ID                                       : 2
    Format                                   : AC-3
    Format/Info                              : Audio Coding 3
    Mode extension                           : CM (complete main)
    Codec ID                                 : 2000
    Duration                                 : 1h 42mn
    Bit rate mode                            : Constant
    Bit rate                                 : 448 Kbps
    Channel(s)                               : 6 channels
    Channel positions                        : Front: L C R, Side: L R, LFE
    Sampling rate                            : 48.0 KHz
    Bit depth                                : 16 bits
    Compression mode                         : Lossy
    Stream size                              : 329 MiB (15%)
    Alignment                                : Split accross interleaves
    Interleave, duration                     : 42 ms (1.00 video frame)
    Interleave, preload duration             : 500 ms
    Скачать .torrent

    Скачать торрент-файл бесплатно и на максимальной скорости!

    Как скачивать? · Что такое торрент? · Рейтинг и ограничения

    !ВНИМАНИЕ!
    Сайт не распространяет и не хранит электронные версии произведений, а занимается лишь лишь предоставлением доступа к создаваемому пользователями каталогу ссылок на торрент-файлы, которые содержат только списки хеш-сумм, убедительная просьба с жалобами обращаться напрямую к пользователю. Файлы для обмена на трекере предоставлены пользователями сайта, и администрация не несёт ответственности за их содержание. Просьба не заливать файлы, защищенные авторскими правами, а также файлы нелегального содержания!


    _________________
    [Профиль] [ЛС]
    Показать сообщения:    
    Ответить на тему

    Текущее время: Сегодня, в 00:06

    Часовой пояс: GMT + 2



    Вы не можете начинать темы
    Вы не можете отвечать на сообщения
    Вы не можете редактировать свои сообщения
    Вы не можете удалять свои сообщения
    Вы не можете голосовать в опросах
    Вы не можете прикреплять файлы к сообщениям
    Вы не можете скачивать файлы