BitTorrentTracker PerecTracker.org
BitTorrentTracker PerecTracker.org
    
Регистрация  ·  Вход
 
 · 
Забыли пароль?

  • Мина начинает тикать / Landmine Goes Click (Леван Бакия / Levan Bakhia) [2015, Грузия, Боевик, триллер, драма, криминал, HDRip] DVO (Parovoz Production)

    Ответить на тему
     
    Автор Сообщение

    Light

    Создавать темы 09-Сен-2016 14:50

           

    [Цитировать]

    Мина начинает тикать / Landmine Goes Click
    Страна: Грузия
    Жанр: Боевик, триллер, драма, криминал
    Год выпуска: 2015
    Продолжительность: 01:40:20
    Перевод: Любительский (двухголосый закадровый) Parovoz Production
    Cубтитры: нет
    Режиссер: Леван Бакия / Levan Bakhia
    В ролях: Стерлинг Найт, Спенсер Лок, Дин Гейер, Коте Толордава, Джиорджи Цаава, Елена Безарашвили, Нана Кикнадзе, Ника Априашвили
    Описание: Трое американских туристов решили отправиться в путешествие по горам Грузии. Но никто из них не подозревал, чем обернется этот поход. Один из них случайно наступает на мину, которая тут же взорвется, если парень уберет с нее ногу. Теперь он вынужден не шевелиться, пока его девушка с другом найдут способ его спасти. Вот только туристы не учли, что такой ситуацией могут воспользоваться совершенно не дружелюбно настроенные люди. Это приводит к тому, что Крис вынужден с ужасом наблюдать, как на его глазах его девушка подвергается жестокому насилию...
    Рейтинг фильма : -- IMDB / 6,3
    Сэмпл: http://multi-up.com/1117006
    Качество видео: HDRip (Исходник Landmine Goes Click (2015) Blu-Ray Remux 1080i)
    Формат видео: AVI
    Видео: XviD, 688x288, (2,40:1), 25,000 fps, 848 Кбит/с, 8 бит
    Аудио: Русский (АС3, 2 ch (Front: L R), 48,0 KHz, 192 Kbps)

    MediaInfo

    Общее
    Полное имя : F:\Видеофильмы\В и д е о\Мина начинает тикать (триллер, драма 2015г).avi
    Формат : AVI
    Формат/Информация : Audio Video Interleave
    Размер файла : 746 Мбайт
    Продолжительность : 1 ч. 39 м.
    Общий поток : 1050 Кбит/сек
    Программа кодирования : VirtualDubMod 1.5.10.2 (build 2540/release)
    Библиотека кодирования : VirtualDubMod build 2540/release
    Видео
    Идентификатор : 0
    Формат : MPEG-4 Visual
    Профиль формата : Advanced Simple@L5
    Параметр BVOP формата : 2
    Параметр QPel формата : Нет
    Параметр GMC формата : Без точки перехода
    Параметр матрицы формата : Выборочная
    Идентификатор кодека : XVID
    Идентификатор кодека/Подсказка : XviD
    Продолжительность : 1 ч. 39 м.
    Битрейт : 848 Кбит/сек
    Ширина : 688 пикселей
    Высота : 288 пикселей
    Соотношение сторон : 2,40:1
    Частота кадров : 25,000 кадров/сек
    Цветовое пространство : YUV
    Субдискретизация насыщенности : 4:2:0
    Битовая глубина : 8 бит
    Тип развёртки : Прогрессивная
    Метод сжатия : С потерями
    Бит/(Пиксели*Кадры) : 0.171
    Размер потока : 603 Мбайт (81%)
    Библиотека кодирования : XviD 1.2.0.dev47 (UTC 2006-11-01)
    Аудио
    Идентификатор : 1
    Формат : AC-3
    Формат/Информация : Audio Coding 3
    Расширение режима : CM (complete main)
    Параметр Endianness формата : Big
    Идентификатор кодека : 2000
    Продолжительность : 1 ч. 39 м.
    Вид битрейта : Постоянный
    Битрейт : 192 Кбит/сек
    Каналы : 2 канала
    Расположение каналов : Front: L R
    Частота : 48,0 КГц
    Частота кадров : 31,250 кадров/сек (1536 spf)
    Метод сжатия : С потерями
    Размер потока : 136 Мбайт (18%)
    Выравнивание : Разделение по промежуткам
    Продолжительность промежутка : 40 мс. (1,00 видеокадр)
    Время предзагрузки промежутка : 500 мс.

    Скриншот c названием фильма

    Скриншоты

    Скачать .torrent

    Скачать торрент-файл бесплатно и на максимальной скорости!

    Как скачивать? · Что такое торрент? · Рейтинг и ограничения

    !ВНИМАНИЕ!
    Сайт не распространяет и не хранит электронные версии произведений, а занимается лишь лишь предоставлением доступа к создаваемому пользователями каталогу ссылок на торрент-файлы, которые содержат только списки хеш-сумм, убедительная просьба с жалобами обращаться напрямую к пользователю. Файлы для обмена на трекере предоставлены пользователями сайта, и администрация не несёт ответственности за их содержание. Просьба не заливать файлы, защищенные авторскими правами, а также файлы нелегального содержания!


    _________________
    [Профиль] [ЛС]
    Показать сообщения:    
    Ответить на тему

    Текущее время: Сегодня, в 21:47

    Часовой пояс: GMT + 2



    Вы не можете начинать темы
    Вы не можете отвечать на сообщения
    Вы не можете редактировать свои сообщения
    Вы не можете удалять свои сообщения
    Вы не можете голосовать в опросах
    Вы не можете прикреплять файлы к сообщениям
    Вы не можете скачивать файлы