BitTorrentTracker PerecTracker.org
BitTorrentTracker PerecTracker.org
    
Регистрация  ·  Вход
 
 · 
Забыли пароль?

  • Не того поля ягода / Серии: 1-4 из 4 (Александр Высоковский) [2016, мелодрама, HDTVRip]

    Ответить на тему
     
    Автор Сообщение

    rechyn

    Создавать темы 09-Сен-2016 10:12

           

    [Цитировать]

    Не того поля ягодаГод выпуска: 2016
    Производство: Россия, ООО "Тесей Продакшн"
    Жанр: мелодрама
    Продолжительность: 00:45:00
    Субтитры: нет
    Режиссер: Александр Высоковский
    В ролях: Алёна Ивченко, Дмитрий Журавлёв, Елизавета Шукова, Максим Коновалов, Павел Павлють, Алла Ельяшевич, Зоя Антонова, Дмитрий Давидович, Владимир Мищанчук, Олег Коц
    Описание: Елена – красивая, успешная и уверенная в себе женщина, генеральный директор крупной фирмы. Но так было не всегда. Двадцать лет назад Елена, будучи еще студенткой из маленького городка, жила в общежитии и собиралась замуж за Ивана Мезенцева – молодого музыканта, которому прочили большое будущее. Но счастье длилось недолго. Мать Меценцева не считала провинциальную девочку достойной парой его сыну. И когда Иван уехал учиться в Америку она сообщила Елене, что Иван за границей женился. Девушка тогда так и не успела сказать, что беременна. Все это время Елена растила дочь Анжелику и представляла, какой будет их встреча с Иваном. И вот однажды эта встреча произошла. Иван был потрясен. Оказывается, двадцать лет назад мама сказала ему, что Елена не дождалась его и вышла замуж за другого. Теперь Иван решает во что бы то ни стало наладить отношения с Еленой и дочерью. А тем временем у Анжелики повторяется история ее родителей. Елена категорически против Олега, студента-провинциала, за которого дочь собралась замуж…
    Релиз группа
    Все раздачи сериала
    Сэмпл
    Качество: HDTVRip
    Формат: AVI
    Видео кодек: XviD
    Аудио кодек: AC3
    Видео: 720x400 (1.80:1), 25 fps, XviD build 73 ~1520 kbps avg, 0.21 bit/pixel
    Аудио: 48 kHz, AC3 Dolby Digital, 2/0 (L,R) ch, ~192 kbps

    MI

    General
    Complete name : X:\раздачи\Ne.togo.polya.yagoda (2016).HDTVRip.RG.Russkie.serialy.&.Files-x.Ne.togo.polya.yagoda (2016).HDTVRip.RG.Russkie.serialy.&.Files-x.avi
    Format : AVI
    Format/Info : Audio Video Interleave
    File size : 550 MiB
    Duration : 43mn 55s
    Overall bit rate : 1 751 Kbps
    Writing application : VirtualDubMod 1.5.10.3 | www.virtualdub-fr.org || (build 2550/release)
    Writing library : VirtualDubMod build 2550/release
    Video
    ID : 0
    Format : MPEG-4 Visual
    Format profile : Advanced Simple@L5
    Format settings, BVOP : 1
    Format settings, QPel : No
    Format settings, GMC : No warppoints
    Format settings, Matrix : Custom
    Codec ID : XVID
    Codec ID/Hint : XviD
    Duration : 43mn 55s
    Bit rate : 1 549 Kbps
    Width : 720 pixels
    Height : 400 pixels
    Display aspect ratio : 16:9
    Frame rate : 25.000 fps
    Color space : YUV
    Chroma subsampling : 4:2:0
    Bit depth : 8 bits
    Scan type : Progressive
    Compression mode : Lossy
    Bits/(Pixel*Frame) : 0.215
    Stream size : 487 MiB (88%)
    Writing library : XviD 73
    Audio
    ID : 1
    Format : AC-3
    Format/Info : Audio Coding 3
    Mode extension : CM (complete main)
    Format settings, Endianness : Big
    Codec ID : 2000
    Duration : 43mn 55s
    Bit rate mode : Constant
    Bit rate : 192 Kbps
    Channel(s) : 2 channels
    Channel positions : Front: L R
    Sampling rate : 48.0 KHz
    Frame rate : 31.250 fps (1536 spf)
    Compression mode : Lossy
    Stream size : 60.3 MiB (11%)
    Alignment : Split accross interleaves
    Interleave, duration : 40 ms (1.00 video frame)
    Interleave, preload duration : 500 ms

    Скриншоты


    Скачать .torrent

    Скачать торрент-файл бесплатно и на максимальной скорости!

    Как скачивать? · Что такое торрент? · Рейтинг и ограничения

    !ВНИМАНИЕ!
    Сайт не распространяет и не хранит электронные версии произведений, а занимается лишь лишь предоставлением доступа к создаваемому пользователями каталогу ссылок на торрент-файлы, которые содержат только списки хеш-сумм, убедительная просьба с жалобами обращаться напрямую к пользователю. Файлы для обмена на трекере предоставлены пользователями сайта, и администрация не несёт ответственности за их содержание. Просьба не заливать файлы, защищенные авторскими правами, а также файлы нелегального содержания!


    _________________
    [Профиль] [ЛС]
    Показать сообщения:    
    Ответить на тему

    Текущее время: Сегодня, в 08:50

    Часовой пояс: GMT + 2



    Вы не можете начинать темы
    Вы не можете отвечать на сообщения
    Вы не можете редактировать свои сообщения
    Вы не можете удалять свои сообщения
    Вы не можете голосовать в опросах
    Вы не можете прикреплять файлы к сообщениям
    Вы не можете скачивать файлы