BitTorrentTracker PerecTracker.org
BitTorrentTracker PerecTracker.org
    
Регистрация  ·  Вход
 
 · 
Забыли пароль?

  • Тройная защита / Серии: 1-16 из 16 (Анатолий Матешко) [2016, Детектив, WEBRip]

    Ответить на тему
     
    Автор Сообщение

    rechyn

    Создавать темы 09-Сен-2016 10:09

           

    [Цитировать]

    Тройная защитаГод выпуска: 2016
    Производство: Украина, ТРК Украина
    Жанр: Детектив
    Продолжительность: 00:45:00
    Субтитры: нет
    Режиссер: Анатолий Матешко
    В ролях: Маша Ефросинина, Евгений Воловенко, Артемий Егоров, Андрей Саминин, Вячеслав Довженко, Наталья Калатай, Анастасия Походенко-Матешко
    Описание: Сюжетная линия разворачивается вокруг молодых людей – Володи, Бориса, Макса и Тамары. Эти ребята с самого детства дружат. Они вместе росли, учились, проводили время. Когда повзрослели, то между парнями возникла некая конкуренция. Все дело в том, что каждый из них влюбился в свою подругу Тамару. Но самой девушке сильно понравился Максим. Вскоре они создали семью. Однако, долго наслаждаться любовными отношениями не суждено было героям. Максим, Борис и Владимир работают в правоохранительных органах. Во время очередной спецоперации преступник Максима тяжело ранил, и он скончался. Борису сложно пережить потеря друга. Он намерен любой ценой найти убийцу. Мужчина с самого детства отличался аналитическим складом ума. Вскоре он понимает, что Макса убил настоящий маньяк. Максим работал над одним делом и вышел на след жестокого убийцы. Владимир и руководство полиции считает безумными мысли Бориса. Так последний вынужден уйти из органов и заняться собственным расследованием. Вскоре Борис понимает, что кто-то им манипулирует. Теперь жизнь самого детектива и Тамары находится в большой опасности. Он ее до сих пор любит и не хочет вновь потерять...
    Релиз группа
    Все раздачи сериала
    Сэмпл
    Качество: WEBRip
    Формат: AVI
    Видео кодек: XviD
    Аудио кодек: AC3
    Видео: 720x400 (1.80:1), 25 fps, XviD build 73 ~1520 kbps avg, 0.21 bit/pixel
    Аудио: 48 kHz, AC3 Dolby Digital, 2/0 (L,R) ch, ~192.00 kbps avg

    MI

    Общее
    Полное имя : F:\Video\Troinaja.zachita.2016.WEB-DLRip.Files-x.Troinaja.zachita.2016.WEB-DLRip.Files-x.avi
    Формат : AVI
    Формат/Информация : Audio Video Interleave
    Размер файла : 600 Мбайт
    Продолжительность : 46 м.
    Общий поток : 1812 Кбит/сек
    Программа кодирования : VirtualDubMod 1.5.10.3 | www.virtualdub-fr.org || (build 2550/release)
    Библиотека кодирования : VirtualDubMod build 2550/release
    Видео
    Идентификатор : 0
    Формат : MPEG-4 Visual
    Профиль формата : Advanced Simple@L5
    Параметр BVOP формата : 1
    Параметр QPel формата : Нет
    Параметр GMC формата : Без точки перехода
    Параметр матрицы формата : Выборочная
    Идентификатор кодека : XVID
    Идентификатор кодека/Подсказка : XviD
    Продолжительность : 46 м.
    Битрейт : 1610 Кбит/сек
    Ширина : 720 пикселей
    Высота : 400 пикселей
    Соотношение сторон : 16:9
    Частота кадров : 25,000 кадров/сек
    Цветовое пространство : YUV
    Субдискретизация насыщенности : 4:2:0
    Битовая глубина : 8 бит
    Тип развёртки : Прогрессивная
    Метод сжатия : С потерями
    Бит/(Пиксели*Кадры) : 0.224
    Размер потока : 533 Мбайт (89%)
    Библиотека кодирования : XviD 73
    Аудио
    Идентификатор : 1
    Формат : AC-3
    Формат/Информация : Audio Coding 3
    Расширение режима : CM (complete main)
    Параметр Endianness формата : Big
    Идентификатор кодека : 2000
    Продолжительность : 46 м.
    Вид битрейта : Постоянный
    Битрейт : 192 Кбит/сек
    Каналы : 2 канала
    Расположение каналов : Front: L R
    Частота : 48,0 КГц
    Битовая глубина : 16 бит
    Метод сжатия : С потерями
    Размер потока : 63,6 Мбайт (11%)
    Выравнивание : Разделение по промежуткам
    Продолжительность промежутка : 40 мс. (1,00 видеокадр)
    Время предзагрузки промежутка : 500 мс.

    Скриншоты


    Скачать .torrent

    Скачать торрент-файл бесплатно и на максимальной скорости!

    Как скачивать? · Что такое торрент? · Рейтинг и ограничения

    !ВНИМАНИЕ!
    Сайт не распространяет и не хранит электронные версии произведений, а занимается лишь лишь предоставлением доступа к создаваемому пользователями каталогу ссылок на торрент-файлы, которые содержат только списки хеш-сумм, убедительная просьба с жалобами обращаться напрямую к пользователю. Файлы для обмена на трекере предоставлены пользователями сайта, и администрация не несёт ответственности за их содержание. Просьба не заливать файлы, защищенные авторскими правами, а также файлы нелегального содержания!


    _________________
    [Профиль] [ЛС]
    Показать сообщения:    
    Ответить на тему

    Текущее время: Сегодня, в 12:12

    Часовой пояс: GMT + 2



    Вы не можете начинать темы
    Вы не можете отвечать на сообщения
    Вы не можете редактировать свои сообщения
    Вы не можете удалять свои сообщения
    Вы не можете голосовать в опросах
    Вы не можете прикреплять файлы к сообщениям
    Вы не можете скачивать файлы