BitTorrentTracker PerecTracker.org
BitTorrentTracker PerecTracker.org
    
Регистрация  ·  Вход
 
 · 
Забыли пароль?

  • Раненое сердце / Серии: 1-4 из 4 (Александр Итыгилов мл.) [2016, мелодрама, SATRip]

    Ответить на тему
     
    Автор Сообщение

    rechyn

    Создавать темы 09-Сен-2016 10:08

           

    [Цитировать]

    Раненое сердце
    Год выпуска: 2016
    Производство: Star Media
    Жанр: мелодрама
    Продолжительность: 00:45:00
    Субтитры: украинские
    Режиссёр: Александр Итыгилов мл.
    В ролях: Михаил Пшеничный, Мила Сивацкая, Наталия Денисенко, Любава Грешнова, Александр Попов (IV)
    Описание: Максим Поверенов — ведущий архитектор в крупной строительной компании. Сам он давно ничего не придумывает, но талантливо руководит небольшим штатом сотрудников. У Максима есть невеста Тамара, но он до сих пор любит свою школьную любовь Ларису, которая не дождалась его из армии, выйдя замуж за лучшего друга. В разгар ответственной сделки Максиму приходит известие, что его любимая умерла. Максим едет к себе на родину, в деревню, чтобы попрощаться с Ларисой. Здесь его ждет известие — у него есть взрослая дочь Женя.

    Релиз группа
    Все раздачи сериала: Раненое сердце

    Качество: SATRip
    Формат: AVI
    Видео кодек: XviD
    Аудио кодек: AC3
    Видео: MPEG-4 Visual, 720х400, 25 кадр/с, ~1560 Кбит/сек, 0,217 bit/pixel
    Аудио: АС3, 48,0 kHz, 2 ch, 192 Кбит/с

    MI

    General
    Complete name               : X:\раздачи\Раненое сердце.2016.SATRip.Files-x.Раненое сердце.2016.SATRip.Files-x.avi
    Format                      : AVI
    Format/Info                 : Audio Video Interleave
    File size                   : 550 MiB
    Duration                    : 43mn 39s
    Overall bit rate            : 1 761 Kbps
    Writing application         : VirtualDubMod 1.5.10.3 | www.virtualdub-fr.org || (build 2550/release)
    Writing library             : VirtualDubMod build 2550/release
    Video
    ID                          : 0
    Format                      : MPEG-4 Visual
    Format profile              : Advanced Simple@L5
    Format settings, BVOP       : 1
    Format settings, QPel       : No
    Format settings, GMC        : No warppoints
    Format settings, Matrix     : Custom
    Codec ID                    : XVID
    Codec ID/Hint               : XviD
    Duration                    : 43mn 39s
    Bit rate                    : 1 560 Kbps
    Width                       : 720 pixels
    Height                      : 400 pixels
    Display aspect ratio        : 16:9
    Frame rate                  : 25.000 fps
    Color space                 : YUV
    Chroma subsampling          : 4:2:0
    Bit depth                   : 8 bits
    Scan type                   : Progressive
    Compression mode            : Lossy
    Bits/(Pixel*Frame)          : 0.217
    Stream size                 : 487 MiB (89%)
    Writing library             : XviD 73
    Audio
    ID                          : 1
    Format                      : AC-3
    Format/Info                 : Audio Coding 3
    Mode extension              : CM (complete main)
    Format settings, Endianness : Big
    Codec ID                    : 2000
    Duration                    : 43mn 39s
    Bit rate mode               : Constant
    Bit rate                    : 192 Kbps
    Channel(s)                  : 2 channels
    Channel positions           : Front: L R
    Sampling rate               : 48.0 KHz
    Frame rate                  : 31.250 fps (1536 spf)
    Compression mode            : Lossy
    Stream size                 : 60.0 MiB (11%)
    Alignment                   : Split accross interleaves
    Interleave, duration        : 40 ms (1.00 video frame)
    Interleave, preload duratio : 500 ms

    Скриншоты

    Скачать .torrent

    Скачать торрент-файл бесплатно и на максимальной скорости!

    Как скачивать? · Что такое торрент? · Рейтинг и ограничения

    !ВНИМАНИЕ!
    Сайт не распространяет и не хранит электронные версии произведений, а занимается лишь лишь предоставлением доступа к создаваемому пользователями каталогу ссылок на торрент-файлы, которые содержат только списки хеш-сумм, убедительная просьба с жалобами обращаться напрямую к пользователю. Файлы для обмена на трекере предоставлены пользователями сайта, и администрация не несёт ответственности за их содержание. Просьба не заливать файлы, защищенные авторскими правами, а также файлы нелегального содержания!


    _________________
    [Профиль] [ЛС]
    Показать сообщения:    
    Ответить на тему

    Текущее время: Сегодня, в 11:04

    Часовой пояс: GMT + 2



    Вы не можете начинать темы
    Вы не можете отвечать на сообщения
    Вы не можете редактировать свои сообщения
    Вы не можете удалять свои сообщения
    Вы не можете голосовать в опросах
    Вы не можете прикреплять файлы к сообщениям
    Вы не можете скачивать файлы