BitTorrentTracker PerecTracker.org
BitTorrentTracker PerecTracker.org
    
Регистрация  ·  Вход
 
 · 
Забыли пароль?

  • Мачеха / Серии: 1-4 из 4 (Александр Аравин) [2016, Мелодрама, SATRip]

    Ответить на тему
     
    Автор Сообщение

    rechyn

    Создавать темы 09-Сен-2016 10:05

           

    [Цитировать]

    МачехаГод выпуска: 2016
    Производство: Россия, Марс Медиа
    Жанр: Мелодрама
    Продолжительность: 00:45:00
    Субтитры: нет
    Режиссёр: Александр Аравин
    В ролях:
    Дарья Калмыкова, Дмитрий Ульянов, Дарья Андреева, Андрей Ушаков (IV), Виталий Ходин, Екатерина Соломатина, Егор Клинаев, Татьяна Щанкина, Елена Котельникова, Олег Филипчик
    Описание: 30-летняя Светлана Филиппова – замечательная мать и жена. Она уверена – у неё есть всё для семейного счастья: сын Антошка, любимый муж Сергей и симпатичная «двушка» на окраине Москвы. И вдруг одним воскресным утром на пороге их дома появляется незнакомец. Известие, которое он приносит, раз и навсегда меняет жизнь Филипповых – оказывается, у Сергея есть 13-летняя дочь, мать которой недавно скончалась от рака. Сергей уверяет жену, что ничего не знал о ребёнке, но и отказываться от девочки не желает. Так в квартире Филипповых появляется Марина – капризная и избалованная девочка-подросток. Несмотря на трудности взаимоотношения с падчерицей, Светлана готова на всё, чтобы вместо мачехи стать девочке мамой.
    Релиз группа
    Все раздачи сериала
    Сэмпл
    Качество: SATRip
    Формат: AVI
    Видео кодек: XviD
    Аудио кодек: AC3
    Видео: 720x400 (1.80:1), 25 fps, XviD build 73 ~1448 kbps avg, 0.22 bit/pixel
    Аудио: 48 kHz, AC3 Dolby Digital, 2/0 (L,R) ch, ~192.00 kbps avg

    MI

    General
    Complete name : X:\раздачи\machexa.2016.SATRip.Files-x.machexa.2016.SATRip.Files-x.avi
    Format : AVI
    Format/Info : Audio Video Interleave
    File size : 550 MiB
    Duration : 43mn 41s
    Overall bit rate : 1 760 Kbps
    Writing application : VirtualDubMod 1.5.10.3 | www.virtualdub-fr.org || (build 2550/release)
    Writing library : VirtualDubMod build 2550/release
    Video
    ID : 0
    Format : MPEG-4 Visual
    Format profile : Advanced Simple@L5
    Format settings, BVOP : 1
    Format settings, QPel : No
    Format settings, GMC : No warppoints
    Format settings, Matrix : Custom
    Codec ID : XVID
    Codec ID/Hint : XviD
    Duration : 43mn 41s
    Bit rate : 1 559 Kbps
    Width : 720 pixels
    Height : 400 pixels
    Display aspect ratio : 16:9
    Frame rate : 25.000 fps
    Color space : YUV
    Chroma subsampling : 4:2:0
    Bit depth : 8 bits
    Scan type : Progressive
    Compression mode : Lossy
    Bits/(Pixel*Frame) : 0.216
    Stream size : 487 MiB (89%)
    Writing library : XviD 73
    Audio
    ID : 1
    Format : AC-3
    Format/Info : Audio Coding 3
    Mode extension : CM (complete main)
    Format settings, Endianness : Big
    Codec ID : 2000
    Duration : 43mn 41s
    Bit rate mode : Constant
    Bit rate : 192 Kbps
    Channel(s) : 2 channels
    Channel positions : Front: L R
    Sampling rate : 48.0 KHz
    Frame rate : 31.250 fps (1536 spf)
    Compression mode : Lossy
    Stream size : 60.0 MiB (11%)
    Alignment : Split accross interleaves
    Interleave, duration : 40 ms (1.00 video frame)
    Interleave, preload duration : 500 ms

    Скриншоты

    Скачать .torrent

    Скачать торрент-файл бесплатно и на максимальной скорости!

    Как скачивать? · Что такое торрент? · Рейтинг и ограничения

    !ВНИМАНИЕ!
    Сайт не распространяет и не хранит электронные версии произведений, а занимается лишь лишь предоставлением доступа к создаваемому пользователями каталогу ссылок на торрент-файлы, которые содержат только списки хеш-сумм, убедительная просьба с жалобами обращаться напрямую к пользователю. Файлы для обмена на трекере предоставлены пользователями сайта, и администрация не несёт ответственности за их содержание. Просьба не заливать файлы, защищенные авторскими правами, а также файлы нелегального содержания!


    _________________
    [Профиль] [ЛС]
    Показать сообщения:    
    Ответить на тему

    Текущее время: Сегодня, в 02:59

    Часовой пояс: GMT + 2



    Вы не можете начинать темы
    Вы не можете отвечать на сообщения
    Вы не можете редактировать свои сообщения
    Вы не можете удалять свои сообщения
    Вы не можете голосовать в опросах
    Вы не можете прикреплять файлы к сообщениям
    Вы не можете скачивать файлы