BitTorrentTracker PerecTracker.org
BitTorrentTracker PerecTracker.org
    
Регистрация  ·  Вход
 
 · 
Забыли пароль?

  • Беги! / Серии: 1-4 из 4 (Андрей Волгин) [2016 г., боевик, детектив, HDTVRip]

    Ответить на тему
     
    Автор Сообщение

    rechyn

    Создавать темы 09-Сен-2016 10:03

           

    [Цитировать]

    БегиГод выпуска: 2016
    Производство: Россия / ООО «Студия Грин Фильм», ООО «ПРИОР Продакшн»
    Жанр: боевик, детектив
    Продолжительность: 00:45:00
    Субтитры: нет
    Режиссер: Андрей Волгин, Максим Кондратенко
    В ролях: Павел Прилучный, Денис Шведов, Иван Жидков, Екатерина Редникова, Светлана Смирнова-Марцинкевич, Михаил Трясоруков, Вячеслав Гумеров, Сергей Колос, Александр Кудренко, Татьяна Казючиц, Владимир Крылов, Сергей Харитонов, Михаил Трясоруков, Игорь Власов, Григорий Никитин, Николай Кий, Андрей Чунарёв, Дмитрий Пулин
    Описание:
    Четверо друзей — Павел, Матвей и братья Артём и Дмитрий Воронковы — берут кредит в банке, чтобы завершить разработку уникальной компьютерной программы. Её создал «русский Билл Гейтс» Дима Воронков. Ребята рассчитывают выгодно продать своё изобретение, но внезапно Артёма Воронкова убивают, а в преступлении обвиняют его брата Диму. Программиста отправляют в колонию, где заключённые требуют флешку с программой, угрожая Воронкову и его жене Варе. Дима понимает, что спасти себя и Варю он сможет, если окажется на свободе. Судьба даёт Диме последний шанс, подсказывая: «Беги!». На главного героя начинается настоящая охота. По его следу идут подполковник Алла Кириленко, а также конкуренты, которые хотят завладеть новой технологией Воронкова.
    Релиз группа
    Все раздачи сериала
    Сэмпл
    Качество: HDTVRip
    Формат: AVI
    Видео кодек: XviD
    Аудио кодек: AC3
    Видео: 720x400 (1.80:1), 25 fps, XviD build 73 ~1520 kbps avg, 0.21 bit/pixel
    Аудио: 48 kHz, AC3 Dolby Digital, 2/0 (L,R) ch, ~192 kbps

    MI

    General
    Complete name : X:\раздачи\Begi.2016.HDTVRip.Files-x.Begi.2016.HDTVRip.Files-x.avi
    Format : AVI
    Format/Info : Audio Video Interleave
    File size : 550 MiB
    Duration : 44mn 48s
    Overall bit rate : 1 717 Kbps
    Writing application : VirtualDubMod 1.5.10.3 | www.virtualdub-fr.org || (build 2550/release)
    Writing library : VirtualDubMod build 2550/release
    Video
    ID : 0
    Format : MPEG-4 Visual
    Format profile : Advanced Simple@L5
    Format settings, BVOP : 1
    Format settings, QPel : No
    Format settings, GMC : No warppoints
    Format settings, Matrix : Custom
    Codec ID : XVID
    Codec ID/Hint : XviD
    Duration : 44mn 48s
    Bit rate : 1 516 Kbps
    Width : 720 pixels
    Height : 400 pixels
    Display aspect ratio : 16:9
    Frame rate : 25.000 fps
    Color space : YUV
    Chroma subsampling : 4:2:0
    Bit depth : 8 bits
    Scan type : Progressive
    Compression mode : Lossy
    Bits/(Pixel*Frame) : 0.211
    Stream size : 486 MiB (88%)
    Writing library : XviD 73
    Audio
    ID : 1
    Format : AC-3
    Format/Info : Audio Coding 3
    Mode extension : CM (complete main)
    Format settings, Endianness : Big
    Codec ID : 2000
    Duration : 44mn 48s
    Bit rate mode : Constant
    Bit rate : 192 Kbps
    Channel(s) : 2 channels
    Channel positions : Front: L R
    Sampling rate : 48.0 KHz
    Frame rate : 31.250 fps (1536 spf)
    Compression mode : Lossy
    Stream size : 61.5 MiB (11%)
    Alignment : Split accross interleaves
    Interleave, duration : 40 ms (1.00 video frame)
    Interleave, preload duratio : 500 ms

    Скриншоты


    Скачать .torrent

    Скачать торрент-файл бесплатно и на максимальной скорости!

    Как скачивать? · Что такое торрент? · Рейтинг и ограничения

    !ВНИМАНИЕ!
    Сайт не распространяет и не хранит электронные версии произведений, а занимается лишь лишь предоставлением доступа к создаваемому пользователями каталогу ссылок на торрент-файлы, которые содержат только списки хеш-сумм, убедительная просьба с жалобами обращаться напрямую к пользователю. Файлы для обмена на трекере предоставлены пользователями сайта, и администрация не несёт ответственности за их содержание. Просьба не заливать файлы, защищенные авторскими правами, а также файлы нелегального содержания!


    _________________
    [Профиль] [ЛС]
    Показать сообщения:    
    Ответить на тему

    Текущее время: Сегодня, в 22:24

    Часовой пояс: GMT + 2



    Вы не можете начинать темы
    Вы не можете отвечать на сообщения
    Вы не можете редактировать свои сообщения
    Вы не можете удалять свои сообщения
    Вы не можете голосовать в опросах
    Вы не можете прикреплять файлы к сообщениям
    Вы не можете скачивать файлы